<?xml version="1.0" standalone="no"?>
<!DOCTYPE svg PUBLIC "-//W3C//DTD SVG 1.1//EN" "http://www.w3.org/Graphics/SVG/1.1/DTD/svg11.dtd" >
<svg xmlns="http://www.w3.org/2000/svg" xmlns:xlink="http://www.w3.org/1999/xlink" version="1.1">
<metadata>
Created by Christoph Koeberlin (http://christoph.koe.berlin)
Copyright (c) 2018 Swiss Typefaces Sarl. All rights reserved.
</metadata>
<defs>
<font id="Font" horiz-adv-x="0" >
  <font-face 
    font-family="Font"
    font-weight="300"
    font-stretch="normal"
    units-per-em="1000"
    panose-1="2 11 3 4 0 0 0 0 0 0"
    ascent="800"
    descent="-200"
    x-height="500"
    cap-height="710"
    bbox="-358 -258 1110 1000"
    underline-thickness="50"
    underline-position="-165"
    unicode-range="U+0020-FB02"
  />
<missing-glyph horiz-adv-x="694" 
d="M97 710h500v-710h-500v710zM116 682v-654l220 327zM578 28v654l-221 -327zM131 691l216 -321l216 321h-432zM131 19h432l-216 320z" />
    <glyph glyph-name=".notdef" horiz-adv-x="694" 
d="M97 710h500v-710h-500v710zM116 682v-654l220 327zM578 28v654l-221 -327zM131 691l216 -321l216 321h-432zM131 19h432l-216 320z" />
    <glyph glyph-name="glyph1" 
 />
    <glyph glyph-name="glyph2" horiz-adv-x="245" 
 />
    <glyph glyph-name="space" unicode=" " horiz-adv-x="245" 
 />
    <glyph glyph-name="exclam" unicode="!" horiz-adv-x="266" 
d="M98 420v290h70v-290l-13 -208h-44zM133 -8q-28 0 -47 20t-19 47t19 47t47 20t47 -20t19 -47t-19 -47t-47 -20z" />
    <glyph glyph-name="quotedbl" unicode="&#x22;" horiz-adv-x="406" 
d="M69 710h66v-235h-66v235zM271 710h66v-235h-66v235z" />
    <glyph glyph-name="numbersign" unicode="#" horiz-adv-x="741" 
d="M418 205h-193l-63 -205h-68l64 205h-124v63h143l58 183h-128v63h148l61 196h67l-61 -196h192l62 196h66l-61 -196h125v-63h-144l-58 -183h130v-63h-150l-63 -205h-67zM245 268h192l58 183h-192z" />
    <glyph glyph-name="dollar" unicode="$" horiz-adv-x="517" 
d="M235 -7q-37 4 -70.5 18.5t-59.5 39.5t-42 61.5t-17 84.5h70q9 -62 40 -95t79 -41v272l-33 14q-83 33 -116.5 83.5t-33.5 116.5q0 39 14.5 70t39.5 53t58.5 35t70.5 16v77h54v-78q31 -5 60.5 -17.5t53 -34t38 -52t14.5 -69.5h-70q-7 41 -32 68t-64 35v-257l22 -9
q79 -32 119.5 -81.5t40.5 -122.5q0 -46 -14.5 -80.5t-39 -57.5t-58 -36t-70.5 -15v-79h-54v81zM401 173q0 54 -29 85t-83 54v-253q48 5 80 35.5t32 78.5zM122 546q0 -45 25.5 -75.5t86.5 -55.5l1 -1v239q-53 -6 -83 -35t-30 -72z" />
    <glyph glyph-name="percent" unicode="%" horiz-adv-x="994" 
d="M233 0l450 710h78l-450 -710h-78zM764 -8q-41 0 -77 15.5t-62.5 42.5t-42 62.5t-15.5 76.5t15.5 77t42 62.5t62.5 42t77 15.5q40 0 76 -15.5t63 -42t42.5 -62.5t15.5 -77t-15.5 -76.5t-42.5 -62.5t-63 -42.5t-76 -15.5zM764 58q27 0 50.5 10.5t41.5 28.5t28 41.5t10 50.5
t-10 50.5t-28 41.5t-41.5 28.5t-50.5 10.5t-50.5 -10.5t-41.5 -28.5t-28 -41.5t-10 -50.5t10 -50.5t28 -41.5t41.5 -28.5t50.5 -10.5zM230 324q-41 0 -77 15.5t-62.5 42.5t-42 62.5t-15.5 76.5t15.5 77t42 62.5t62.5 42t77 15.5q40 0 76 -15.5t63 -42t42.5 -62.5t15.5 -77
t-15.5 -76.5t-42.5 -62.5t-63 -42.5t-76 -15.5zM230 390q27 0 50.5 10.5t41.5 28.5t28 41.5t10 50.5t-10 50.5t-28 41.5t-41.5 28.5t-50.5 10.5t-50.5 -10.5t-41.5 -28.5t-28 -41.5t-10 -50.5t10 -50.5t28 -41.5t41.5 -28.5t50.5 -10.5z" />
    <glyph glyph-name="ampersand" unicode="&#x26;" horiz-adv-x="737" 
d="M279 -10q-46 0 -84.5 15t-67 42t-44.5 63.5t-16 80.5q0 39 13 69t34.5 54t48.5 43t54 35l16 9q-16 16 -32 34t-29 38.5t-21 43.5t-8 49q0 36 14 64.5t37.5 49t55.5 31.5t68 11q37 0 68 -12.5t53.5 -34.5t34.5 -51t12 -63q0 -33 -12.5 -60t-33 -48.5t-46 -38t-51.5 -29.5
l163 -159l89 116h80l-123 -161l186 -181h-93l-133 129q-29 -35 -55.5 -61t-54.5 -43.5t-58 -26t-65 -8.5zM284 55q27 0 50 7.5t44.5 22.5t43 37t44.5 52l-186 181l-22 -11q-26 -14 -48 -28.5t-37.5 -32.5t-24.5 -40t-9 -51q0 -32 12 -57.5t32 -43t46 -27t55 -9.5zM212 564
q0 -39 24 -68.5t61 -64.5l6 3q22 12 42.5 24t36.5 26.5t25 31.5t9 39q0 45 -26.5 75t-73.5 30q-42 0 -73 -25.5t-31 -70.5z" />
    <glyph glyph-name="quotesingle" unicode="'" horiz-adv-x="204" 
d="M69 710h66v-235h-66v235z" />
    <glyph glyph-name="parenleft" unicode="(" horiz-adv-x="268" 
d="M177 -160q-128 232 -128 480t128 480h59q-64 -124 -92.5 -240.5t-28.5 -239.5t28.5 -239.5t92.5 -240.5h-59z" />
    <glyph glyph-name="parenright" unicode=")" horiz-adv-x="267" 
d="M31 -160q64 124 92.5 240.5t28.5 239.5t-28.5 239.5t-92.5 240.5h59q128 -232 128 -480t-128 -480h-59z" />
    <glyph glyph-name="asterisk" unicode="*" horiz-adv-x="424" 
d="M89 427l75 104l-122 41l16 56l124 -41v123h58v-123l124 40l18 -55l-123 -40l76 -105l-46 -33l-78 104l-75 -104z" />
    <glyph glyph-name="plus" unicode="+" horiz-adv-x="502" 
d="M39 321h179v179h66v-179h179v-63h-179v-179h-66v179h-179v63z" />
    <glyph glyph-name="comma" unicode="," horiz-adv-x="248" 
d="M78 -140h-50l65 140q-16 9 -25.5 24.5t-9.5 34.5q0 27 19 47t47 20t47 -20t19 -47q0 -11 -3.5 -21t-8.5 -18z" />
    <glyph glyph-name="hyphen" unicode="-" horiz-adv-x="381" 
d="M68 316h245v-72h-245v72z" />
    <glyph glyph-name="period" unicode="." horiz-adv-x="244" 
d="M122 -8q-28 0 -47 20t-19 47t19 47t47 20t47 -20t19 -47t-19 -47t-47 -20z" />
    <glyph glyph-name="slash" unicode="/" horiz-adv-x="497" 
d="M408 710h67l-386 -820h-67z" />
    <glyph glyph-name="zero" unicode="0" horiz-adv-x="620" 
d="M310 -10q-54 0 -99 19t-78 54t-51.5 83t-18.5 107v206q0 58 18.5 106.5t51.5 83.5t78 54t99 19t99 -19t78 -54t51.5 -83.5t18.5 -106.5v-206q0 -59 -18.5 -107t-51.5 -83t-78 -54t-99 -19zM310 58q39 0 71.5 13.5t56 38.5t36.5 61t13 82v206q0 46 -13 82t-36.5 61
t-56 38.5t-71.5 13.5t-71.5 -13.5t-56 -38.5t-36.5 -61t-13 -82v-206q0 -46 13 -82t36.5 -61t56 -38.5t71.5 -13.5z" />
    <glyph glyph-name="one" unicode="1" horiz-adv-x="312" 
d="M143 641h-133l61 69h142v-710h-70v641z" />
    <glyph glyph-name="two" unicode="2" horiz-adv-x="553" 
d="M504 0h-452v30q0 56 22.5 99t58 77.5t78 63.5t81.5 59q33 25 58 45t41 41.5t24 46.5t8 60q0 30 -10.5 54.5t-29.5 41.5t-45 26.5t-56 9.5q-31 0 -59.5 -9.5t-50.5 -28t-35.5 -47.5t-14.5 -68h-72q0 51 18 91.5t48.5 69.5t72.5 44.5t90 15.5q44 0 83 -13t68.5 -38.5
t47 -63.5t17.5 -89q0 -37 -9 -68t-28.5 -59.5t-52 -57.5t-78.5 -63q-35 -26 -68 -48t-59 -44.5t-44.5 -49t-24.5 -61.5h373v-67z" />
    <glyph glyph-name="three" unicode="3" horiz-adv-x="578" 
d="M297 -10q-54 0 -100 17t-79.5 47t-52 70.5t-18.5 87.5h72q1 -34 16 -62.5t39 -48.5t56 -31.5t67 -11.5q31 0 59.5 9t49.5 26.5t33.5 43.5t12.5 61q0 37 -12.5 63t-34.5 43t-53 25t-68 8h-50v69h57q29 0 54.5 9t44.5 25.5t30.5 39.5t11.5 50q0 28 -11 50.5t-30 39
t-44.5 25.5t-54.5 9q-32 0 -61 -9.5t-51 -28t-35 -47.5t-14 -68h-72q0 51 18 91.5t49.5 69.5t74 44.5t91.5 15.5q42 0 80.5 -13t68 -37.5t46.5 -60.5t17 -81q-1 -52 -29 -93t-72 -62q58 -23 89.5 -69.5t31.5 -107.5q0 -47 -17 -85.5t-47 -65.5t-72 -42t-91 -15z" />
    <glyph glyph-name="four" unicode="4" horiz-adv-x="610" 
d="M402 202h-385v57l395 451h60v-441h100v-67h-100v-202h-70v202zM402 269v332l-291 -332h291z" />
    <glyph glyph-name="five" unicode="5" horiz-adv-x="550" 
d="M271 -10q-48 0 -90 16.5t-73.5 43.5t-50.5 63t-20 75h72q6 -28 21 -51.5t36 -41t48 -27.5t57 -10q35 0 65.5 13t53 35.5t35 53t12.5 64.5t-12 64.5t-33 53t-50.5 35.5t-65.5 13q-48 0 -83.5 -19.5t-58.5 -52.5l-69 20l70 372h328v-69h-270l-42 -225q21 17 55 29.5
t76 12.5q50 0 91.5 -18.5t71.5 -51.5t47 -78t17 -97q0 -45 -18.5 -85.5t-50.5 -71t-75.5 -48.5t-93.5 -18z" />
    <glyph glyph-name="six" unicode="6" horiz-adv-x="556" 
d="M275 -10q-50 0 -93.5 18.5t-75.5 50t-50.5 73.5t-18.5 89q0 57 24 100.5t54 77.5l274 311h91l-231 -262q11 3 21 4t21 1q46 0 86.5 -19t70.5 -51t47.5 -73.5t17.5 -85.5q0 -48 -18.5 -91t-50.5 -74.5t-75.5 -50t-93.5 -18.5zM275 58q35 0 65.5 13t53 35.5t35 53
t12.5 64.5t-12.5 64.5t-35 53t-53 35.5t-65.5 13t-65.5 -13t-53 -35.5t-35 -53t-12.5 -64.5t12.5 -64.5t35 -53t53 -35.5t65.5 -13z" />
    <glyph glyph-name="seven" unicode="7" horiz-adv-x="498" 
d="M66 0l335 641h-373v69h457v-57l-341 -653h-78z" />
    <glyph glyph-name="eight" unicode="8" horiz-adv-x="566" 
d="M283 -10q-51 0 -94 16.5t-74 46.5t-48.5 70.5t-17.5 88.5q0 66 32 115t89 74q-37 23 -58 59.5t-21 81.5q0 39 15 72t40.5 57t60.5 37.5t76 13.5q42 0 77 -13.5t60.5 -37.5t40 -57t14.5 -72q0 -45 -20.5 -81.5t-56.5 -59.5q57 -25 88 -74t31 -115q0 -48 -16.5 -88.5
t-47.5 -70.5t-74 -46.5t-96 -16.5zM283 58q39 0 69.5 12t51.5 32.5t32 48.5t11 60q0 33 -11 61t-32 48.5t-51.5 32t-68.5 11.5t-68 -11.5t-52 -32t-33.5 -48.5t-11.5 -61q0 -32 11.5 -60t33 -48.5t52 -32.5t67.5 -12zM283 431q30 0 52.5 9.5t38.5 25t24 35.5t8 42
q0 47 -32 79t-91 32q-56 0 -89.5 -32t-33.5 -79q0 -22 8.5 -42t24.5 -35.5t39 -25t51 -9.5z" />
    <glyph glyph-name="nine" unicode="9" horiz-adv-x="556" 
d="M307 263q-10 -2 -20 -3t-21 -1q-46 0 -86.5 19t-70.5 51t-47.5 73.5t-17.5 85.5q0 48 18.5 91t50.5 74.5t75.5 50t93.5 18.5t93.5 -18.5t75.5 -50t50.5 -73.5t18.5 -89q0 -57 -24 -100.5t-54 -77.5l-276 -313h-91zM282 322q35 0 65.5 13t53 35.5t35 53t12.5 64.5
t-12.5 64.5t-35 53t-53 35.5t-65.5 13t-65.5 -13t-53 -35.5t-35 -53t-12.5 -64.5t12.5 -64.5t35 -53t53 -35.5t65.5 -13z" />
    <glyph glyph-name="colon" unicode=":" horiz-adv-x="266" 
d="M133 378q-28 0 -47 20t-19 47t19 47t47 20t47 -20t19 -47t-19 -47t-47 -20zM133 -8q-28 0 -47 20t-19 47t19 47t47 20t47 -20t19 -47t-19 -47t-47 -20z" />
    <glyph glyph-name="semicolon" unicode=";" horiz-adv-x="280" 
d="M96 -140h-50l65 140q-16 9 -25.5 24.5t-9.5 34.5q0 27 19 47t47 20t47 -20t19 -47q0 -11 -3.5 -21t-8.5 -18zM142 378q-28 0 -47 20t-19 47t19 47t47 20t47 -20t19 -47t-19 -47t-47 -20z" />
    <glyph glyph-name="equal" unicode="=" horiz-adv-x="566" 
d="M71 212h424v-63h-424v63zM71 431h424v-63h-424v63z" />
    <glyph glyph-name="question" unicode="?" horiz-adv-x="502" 
d="M197 249q0 19 9.5 38t24 36t30.5 31t29 24q22 16 39.5 31t29.5 31.5t18.5 35t6.5 42.5q0 28 -9.5 53t-27 43.5t-41.5 29t-53 10.5q-33 0 -60 -11t-47 -30.5t-31 -46t-11 -58.5h-70q0 44 16.5 83t45.5 68t69 46t88 17q46 0 83 -16.5t63.5 -45t40.5 -65.5t14 -77
q0 -36 -11 -64.5t-27.5 -50.5t-35.5 -38.5t-35 -28.5q-13 -10 -26.5 -20.5t-25 -22.5t-19 -25.5t-7.5 -28.5v-10h-70v20zM232 -8q-28 0 -47 20t-19 47t19 47t47 20t47 -20t19 -47t-19 -47t-47 -20z" />
    <glyph glyph-name="at" unicode="@" horiz-adv-x="815" 
d="M398 -10q-81 0 -145.5 27t-110 74t-69.5 110.5t-24 135.5q0 85 32 156t86 122t124.5 79t147.5 28q72 0 133.5 -22.5t107.5 -64t72 -99.5t26 -130q0 -65 -15.5 -111.5t-40 -76.5t-56 -44.5t-64.5 -14.5q-25 0 -42.5 5.5t-30 14.5t-20.5 20.5t-12 23.5q-18 -28 -55.5 -45.5
t-74.5 -17.5q-30 0 -57.5 11.5t-49 33t-34 54t-12.5 74.5q0 48 16 88t44 69t65 45t78 16q48 0 78.5 -23t39.5 -51l12 65h69l-50 -243q-3 -17 -4 -31t3 -25t13.5 -17t26.5 -6q48 0 77 46.5t29 141.5q0 57 -20.5 103.5t-56.5 79.5t-86 51.5t-110 18.5q-64 0 -122 -23
t-102.5 -65t-71 -102t-26.5 -134q0 -63 19.5 -115.5t56 -90.5t89 -59t117.5 -21q45 0 95 10t91 30v-67q-44 -17 -93.5 -25.5t-92.5 -8.5zM376 221q24 0 46.5 9t40.5 25.5t30 38t17 47.5q6 32 1.5 59t-17 47t-32.5 31.5t-46 11.5q-24 0 -46.5 -9t-40.5 -25.5t-30.5 -38.5
t-16.5 -47q-6 -32 -1.5 -59t17 -47t32.5 -31.5t46 -11.5z" />
    <glyph glyph-name="A" unicode="A" horiz-adv-x="710" 
d="M324 710h61l317 -710h-80l-99 221h-339l-98 -221h-78zM215 292h277l-139 311z" />
    <glyph glyph-name="B" unicode="B" horiz-adv-x="628" 
d="M99 710h224q51 0 90.5 -15t66.5 -40t41 -58t14 -69q0 -57 -22.5 -93.5t-58.5 -57.5q27 -9 50 -22.5t40.5 -34t27.5 -48.5t10 -65q0 -45 -17 -82.5t-48.5 -65.5t-76.5 -43.5t-101 -15.5h-240v710zM347 69q81 0 120.5 37t39.5 95q0 57 -39 95t-120 38h-173v-265h172z
M328 400q63 0 97.5 34t34.5 86q0 24 -9 46t-25.5 38.5t-41.5 26.5t-56 10h-153v-241h153z" />
    <glyph glyph-name="C" unicode="C" horiz-adv-x="791" 
d="M415 -12q-77 0 -144 28t-116.5 77.5t-78 116.5t-28.5 145t28.5 145t78 116.5t116.5 77.5t144 28q69 0 127 -21t101.5 -55.5t71.5 -78t39 -89.5h-80q-12 36 -35.5 67t-57 54.5t-75.5 37t-91 13.5q-62 0 -115 -23t-92 -62.5t-61 -93.5t-22 -116t22 -116t61 -94t92 -62.5
t115 -22.5q49 0 91 13.5t75.5 37t57 54.5t35.5 67h80q-11 -46 -39 -89.5t-71.5 -78t-101.5 -55.5t-127 -21z" />
    <glyph glyph-name="D" unicode="D" horiz-adv-x="723" 
d="M99 710h194q84 0 154 -26.5t120.5 -74t79 -112.5t28.5 -142t-28.5 -142t-79 -112.5t-120.5 -74t-154 -26.5h-194v710zM293 72q69 0 125.5 21t96 59t61.5 89.5t22 113.5q0 61 -22 113t-61.5 90t-96 59t-125.5 21h-118v-566h118z" />
    <glyph glyph-name="E" unicode="E" horiz-adv-x="554" 
d="M99 710h405v-72h-329v-237h269v-72h-269v-257h329v-72h-405v710z" />
    <glyph glyph-name="F" unicode="F" horiz-adv-x="528" 
d="M99 710h407v-72h-331v-237h262v-72h-262v-329h-76v710z" />
    <glyph glyph-name="G" unicode="G" horiz-adv-x="820" 
d="M415 -12q-77 0 -144 28t-116.5 77.5t-78 116.5t-28.5 145t28.5 145t78 116.5t116.5 77.5t144 28q65 0 120.5 -19t99 -50t73.5 -71t44 -82h-84q-15 32 -39.5 59.5t-57 47.5t-72 31.5t-84.5 11.5q-62 0 -115 -23t-92 -62.5t-61 -93.5t-22 -116t22 -116t61 -94t92 -62.5
t115 -22.5q58 0 107.5 20.5t86 56.5t58.5 85t27 106h-279v72h357q6 -93 -20 -169t-75.5 -130t-117 -83.5t-144.5 -29.5z" />
    <glyph glyph-name="H" unicode="H" horiz-adv-x="765" 
d="M99 710h76v-309h415v309h76v-710h-76v329h-415v-329h-76v710z" />
    <glyph glyph-name="I" unicode="I" horiz-adv-x="274" 
d="M99 710h76v-710h-76v710z" />
    <glyph glyph-name="J" unicode="J" horiz-adv-x="523" 
d="M229 -12q-43 0 -81 13t-66 38.5t-44 62.5t-16 84h76q0 -32 11 -55.5t29 -39.5t41.5 -24t48.5 -8t48 7.5t40.5 25t28 45.5t10.5 69v504h76v-514q0 -56 -16.5 -95.5t-44.5 -64.5t-64.5 -36.5t-76.5 -11.5z" />
    <glyph glyph-name="K" unicode="K" horiz-adv-x="664" 
d="M174 343v-343h-75v710h75v-311l327 311h103l-353 -337l435 -373h-113z" />
    <glyph glyph-name="L" unicode="L" horiz-adv-x="547" 
d="M99 710h76v-638h355v-72h-431v710z" />
    <glyph glyph-name="M" unicode="M" horiz-adv-x="886" 
d="M169 710l274 -365l274 365h70v-710h-76v579l-268 -357l-268 357v-579h-76v710h70z" />
    <glyph glyph-name="N" unicode="N" horiz-adv-x="794" 
d="M628 0l-453 581v-581h-76v710h67l453 -581v581h76v-710h-67z" />
    <glyph glyph-name="O" unicode="O" horiz-adv-x="830" 
d="M415 60q62 0 115 22.5t92 62.5t61 94t22 116t-22 116t-61 93.5t-92 62.5t-115 23t-115 -23t-92 -62.5t-61 -93.5t-22 -116t22 -116t61 -94t92 -62.5t115 -22.5zM415 -12q-77 0 -144 28t-116.5 77.5t-78 116.5t-28.5 145t28.5 145t78 116.5t116.5 77.5t144 28t144 -28
t116.5 -77.5t78 -116.5t28.5 -145t-28.5 -145t-78 -116.5t-116.5 -77.5t-144 -28z" />
    <glyph glyph-name="P" unicode="P" horiz-adv-x="584" 
d="M552 488q0 -47 -17 -87.5t-48.5 -70t-76 -46.5t-100.5 -17h-135v-267h-76v710h211q56 0 100.5 -17t76 -47t48.5 -70.5t17 -87.5zM475 488q0 32 -10.5 59.5t-31.5 48t-52 32t-71 11.5h-135v-301h135q40 0 71 11.5t52 31.5t31.5 47.5t10.5 59.5z" />
    <glyph glyph-name="Q" unicode="Q" horiz-adv-x="839" 
d="M415 -12q-77 0 -144 28t-116.5 77.5t-78 116.5t-28.5 145t28.5 145t78 116.5t116.5 77.5t144 28t144 -28t116.5 -77.5t78 -116.5t28.5 -145q0 -72 -24 -134t-66 -110l116 -111h-103l-66 63q-47 -35 -103.5 -55t-120.5 -20zM415 60q49 0 92 14t79 40l-115 111l49 52
l118 -114q32 38 49.5 87t17.5 105q0 62 -22 116t-61 93.5t-92 62.5t-115 23t-115 -23t-92 -62.5t-61 -93.5t-22 -116t22 -116t61 -94t92 -62.5t115 -22.5z" />
    <glyph glyph-name="R" unicode="R" horiz-adv-x="628" 
d="M99 710h232q49 0 88 -13.5t66 -38.5t41.5 -60.5t14.5 -78.5q0 -82 -49 -132.5t-137 -57.5l281 -329h-99l-281 330h-81v-330h-76v710zM322 400q68 0 105 29.5t37 89.5t-37 90t-105 30h-147v-239h147z" />
    <glyph glyph-name="S" unicode="S" horiz-adv-x="552" 
d="M284 -12q-53 0 -96.5 15t-74.5 41.5t-48.5 61.5t-18.5 75h76q3 -32 19 -54.5t39 -37.5t50 -22t53 -7q30 0 56.5 8t46 23t31 37t11.5 49q0 47 -27 78.5t-76 50.5l-105 40q-83 32 -120 78t-37 119q0 42 16 75t44 56.5t66 35.5t83 12q53 0 92 -16.5t65 -42.5t40.5 -59.5
t18.5 -66.5h-76q-7 30 -21.5 51t-33.5 35t-41.5 20.5t-46.5 6.5q-55 0 -92.5 -28.5t-37.5 -77.5t26 -76t80 -48l94 -36q80 -31 122.5 -78.5t42.5 -126.5q0 -45 -16.5 -80t-46 -60t-69.5 -38t-88 -13z" />
    <glyph glyph-name="T" unicode="T" horiz-adv-x="567" 
d="M246 638h-230v72h535v-72h-230v-638h-75v638z" />
    <glyph glyph-name="U" unicode="U" horiz-adv-x="728" 
d="M364 -12q-61 0 -111.5 20t-86.5 57t-56 90.5t-20 119.5v435h76v-437q0 -51 14 -91t40 -67t62.5 -41t81.5 -14t81.5 14t62.5 41t40 67t14 91v437h76v-435q0 -66 -20 -119.5t-56 -90.5t-86.5 -57t-111.5 -20z" />
    <glyph glyph-name="V" unicode="V" horiz-adv-x="694" 
d="M10 710h85l252 -586l252 586h84l-305 -710h-62z" />
    <glyph glyph-name="W" unicode="W" horiz-adv-x="942" 
d="M471 516l-179 -516h-66l-202 710h79l162 -580l206 592l206 -592l162 580h79l-202 -710h-66z" />
    <glyph glyph-name="X" unicode="X" horiz-adv-x="662" 
d="M7 0l276 359l-266 351h93l221 -289l221 289h93l-267 -351l277 -359h-96l-228 296l-228 -296h-96z" />
    <glyph glyph-name="Y" unicode="Y" horiz-adv-x="669" 
d="M297 301l-280 409h92l226 -331l226 331h92l-281 -410v-300h-75v301z" />
    <glyph glyph-name="Z" unicode="Z" horiz-adv-x="578" 
d="M33 50l398 588h-386v72h488v-50l-399 -588h410v-72h-511v50z" />
    <glyph glyph-name="bracketleft" unicode="[" horiz-adv-x="298" 
d="M97 800h176v-63h-110v-834h110v-63h-176v960z" />
    <glyph glyph-name="bracketright" unicode="]" horiz-adv-x="298" 
d="M201 -160h-176v63h110v834h-110v63h176v-960z" />
    <glyph glyph-name="underscore" unicode="_" horiz-adv-x="537" 
d="M58 0h421v-63h-421v63z" />
    <glyph glyph-name="grave" unicode="`" 
d="M-93 750h95l90 -190h-60z" />
    <glyph glyph-name="a" unicode="a" horiz-adv-x="634" 
d="M293 -10q-53 0 -98.5 20.5t-79 56t-52.5 82.5t-19 101t19 101t52.5 82.5t79 56t98.5 20.5q58 0 108 -26.5t77 -67.5v84h70v-500h-70v84q-27 -41 -77 -67.5t-108 -26.5zM300 55q41 0 75 15.5t58 41.5t37.5 61.5t13.5 76.5q0 40 -13.5 76t-37.5 62t-58 41.5t-75 15.5
t-75 -15.5t-58 -41.5t-37.5 -62t-13.5 -76q0 -41 13.5 -76.5t37.5 -61.5t58 -41.5t75 -15.5z" />
    <glyph glyph-name="b" unicode="b" horiz-adv-x="634" 
d="M341 -10q-58 0 -108 26.5t-77 67.5v-84h-70v750h70v-334q27 41 77 67.5t108 26.5q53 0 98.5 -20.5t79 -56t52.5 -82.5t19 -101t-19 -101t-52.5 -82.5t-79 -56t-98.5 -20.5zM334 55q41 0 75 15.5t58 41.5t37.5 61.5t13.5 76.5q0 40 -13.5 76t-37.5 62t-58 41.5t-75 15.5
t-75 -15.5t-58 -41.5t-37.5 -62t-13.5 -76q0 -41 13.5 -76.5t37.5 -61.5t58 -41.5t75 -15.5z" />
    <glyph glyph-name="c" unicode="c" horiz-adv-x="590" 
d="M305 -10q-57 0 -105 20.5t-82.5 56t-54 82.5t-19.5 101t19.5 101t54 82.5t82.5 56t105 20.5q46 0 86.5 -13.5t73.5 -37.5t56 -57.5t34 -72.5h-76q-17 51 -64 83.5t-110 32.5q-43 0 -78 -15.5t-59.5 -42t-38 -62t-13.5 -75.5t13.5 -75.5t38 -62t59.5 -42t78 -15.5
q63 0 110 32.5t64 83.5h76q-11 -39 -34 -72.5t-56 -57.5t-73.5 -37.5t-86.5 -13.5z" />
    <glyph glyph-name="d" unicode="d" horiz-adv-x="634" 
d="M293 -10q-53 0 -98.5 20.5t-79 56t-52.5 82.5t-19 101t19 101t52.5 82.5t79 56t98.5 20.5q58 0 108 -26.5t77 -67.5v334h70v-750h-70v84q-27 -41 -77 -67.5t-108 -26.5zM300 55q41 0 75 15.5t58 41.5t37.5 61.5t13.5 76.5q0 40 -13.5 76t-37.5 62t-58 41.5t-75 15.5
t-75 -15.5t-58 -41.5t-37.5 -62t-13.5 -76q0 -41 13.5 -76.5t37.5 -61.5t58 -41.5t75 -15.5z" />
    <glyph glyph-name="e" unicode="e" horiz-adv-x="575" 
d="M293 -10q-54 0 -99.5 19.5t-78.5 54.5t-51.5 82.5t-18.5 103.5q0 54 17 101.5t49.5 83t79 55.5t105.5 20q60 0 105.5 -23.5t75.5 -62.5t43.5 -89.5t8.5 -104.5h-412q0 -39 15 -71t39 -55t55.5 -36t66.5 -13q50 0 90 21t66 73h72q-9 -32 -28 -61t-47.5 -50.5t-66.5 -34.5
t-86 -13zM293 445q-28 0 -55.5 -8t-51.5 -26.5t-41 -48t-24 -71.5h336q-12 75 -56.5 114.5t-107.5 39.5z" />
    <glyph glyph-name="f" unicode="f" horiz-adv-x="353" 
d="M124 434h-107v66h107v112q0 74 40 109t101 35q41 0 75 -13v-63q-12 5 -30.5 8t-33.5 3q-40 0 -61 -18.5t-21 -66.5v-106h146v-66h-146v-434h-70v434z" />
    <glyph glyph-name="g" unicode="g" horiz-adv-x="631" 
d="M302 -219q-50 0 -91.5 12.5t-73 34.5t-51.5 53t-26 68h69q18 -53 63 -78.5t111 -25.5q37 0 68.5 12.5t54.5 36.5t36 59.5t13 81.5v59q-27 -41 -76 -67.5t-107 -26.5q-53 0 -98.5 19.5t-78.5 54t-51.5 81t-18.5 100.5t18.5 100.5t51.5 81t78.5 54t98.5 19.5
q58 0 107 -26.5t76 -67.5v84h70v-469q0 -61 -18.5 -108t-51 -78.5t-77 -47.5t-96.5 -16zM299 65q41 0 74.5 14.5t57.5 40t37 60t13 75.5q0 40 -13 75t-37 60.5t-57.5 40t-74.5 14.5t-74.5 -14.5t-57.5 -40t-37 -60.5t-13 -75q0 -41 13 -75.5t37 -60t57.5 -40t74.5 -14.5z
" />
    <glyph glyph-name="h" unicode="h" horiz-adv-x="586" 
d="M86 0v750h70v-334q27 50 71 72t93 22q41 0 75.5 -13.5t59.5 -39t39 -62t14 -82.5v-313h-70v303q0 66 -35 104t-91 38q-33 0 -61.5 -13t-49.5 -38.5t-33 -62t-12 -82.5v-249h-70z" />
    <glyph glyph-name="i" unicode="i" horiz-adv-x="242" 
d="M122 650q-23 0 -38.5 15.5t-15.5 37.5t15.5 37.5t38.5 15.5q22 0 37 -15.5t15 -37.5t-15 -37.5t-37 -15.5zM86 500h70v-500h-70v500z" />
    <glyph glyph-name="j" unicode="j" horiz-adv-x="250" 
d="M164 -75q0 -74 -40 -109t-101 -35q-20 0 -35 3v64q6 -1 12.5 -1.5t16.5 -0.5q35 0 56 18.5t21 66.5v569h70v-575zM130 650q-23 0 -38.5 15.5t-15.5 37.5t15.5 37.5t38.5 15.5q22 0 37 -15.5t15 -37.5t-15 -37.5t-37 -15.5z" />
    <glyph glyph-name="k" unicode="k" horiz-adv-x="534" 
d="M156 255v-255h-70v750h70v-447l235 197h99l-263 -220l320 -280h-100z" />
    <glyph glyph-name="l" unicode="l" horiz-adv-x="242" 
d="M86 750h70v-750h-70v750z" />
    <glyph glyph-name="m" unicode="m" horiz-adv-x="882" 
d="M734 303q0 62 -27 102t-79 40q-33 0 -60.5 -14t-47 -39.5t-30 -61.5t-10.5 -81v-249h-70v303q0 62 -26.5 102t-78.5 40q-33 0 -60.5 -14t-47 -39.5t-30.5 -61.5t-11 -81v-249h-70v500h70v-84q22 44 63 69t93 25q57 0 97 -30.5t58 -82.5q19 51 62 82t104 31q39 0 71 -14.5
t54 -40.5t34 -62t12 -80v-313h-70v303z" />
    <glyph glyph-name="n" unicode="n" horiz-adv-x="586" 
d="M86 500h70v-84q27 50 71 72t93 22q41 0 75.5 -13.5t59.5 -39t39 -62t14 -82.5v-313h-70v303q0 66 -35 104t-91 38q-33 0 -61.5 -13t-49.5 -38.5t-33 -62t-12 -82.5v-249h-70v500z" />
    <glyph glyph-name="o" unicode="o" horiz-adv-x="610" 
d="M305 -10q-57 0 -105 20.5t-82.5 56t-54 82.5t-19.5 101t19.5 101t54 82.5t82.5 56t105 20.5t105 -20.5t82.5 -56t54 -82.5t19.5 -101t-19.5 -101t-54 -82.5t-82.5 -56t-105 -20.5zM305 55q43 0 77.5 15.5t59.5 42t38.5 62t13.5 75.5t-13.5 75.5t-38.5 62t-59.5 42
t-77.5 15.5t-78 -15.5t-59.5 -42t-38 -62t-13.5 -75.5t13.5 -75.5t38 -62t59.5 -42t78 -15.5z" />
    <glyph glyph-name="p" unicode="p" horiz-adv-x="635" 
d="M86 -209v709h70v-84q27 41 77 67.5t108 26.5q53 0 98.5 -20.5t79 -56t52.5 -82.5t19 -101t-19 -101t-52.5 -82.5t-79 -56t-98.5 -20.5q-58 0 -108 26.5t-77 67.5v-293h-70zM334 55q41 0 75 15.5t58 41.5t37.5 61.5t13.5 76.5q0 40 -13.5 76t-37.5 62t-58 41.5t-75 15.5
t-75 -15.5t-58 -41.5t-37.5 -62t-13.5 -76q0 -41 13.5 -76.5t37.5 -61.5t58 -41.5t75 -15.5z" />
    <glyph glyph-name="q" unicode="q" horiz-adv-x="634" 
d="M478 -209v293q-27 -41 -77 -67.5t-108 -26.5q-53 0 -98.5 20.5t-79 56t-52.5 82.5t-19 101t19 101t52.5 82.5t79 56t98.5 20.5q58 0 108 -26.5t77 -67.5v84h70v-709h-70zM300 55q41 0 75 15.5t58 41.5t37.5 61.5t13.5 76.5q0 40 -13.5 76t-37.5 62t-58 41.5t-75 15.5
t-75 -15.5t-58 -41.5t-37.5 -62t-13.5 -76q0 -41 13.5 -76.5t37.5 -61.5t58 -41.5t75 -15.5z" />
    <glyph glyph-name="r" unicode="r" horiz-adv-x="357" 
d="M86 500h70v-103q8 26 23.5 46.5t35 34t42 20.5t44.5 7q20 0 36 -4v-73q-20 7 -42 7q-23 0 -48 -11t-45 -33.5t-33 -57t-13 -82.5v-251h-70v500z" />
    <glyph glyph-name="s" unicode="s" horiz-adv-x="457" 
d="M237 -10q-38 0 -72 9t-61 28t-43.5 47.5t-19.5 66.5h70q6 -25 18.5 -42t30 -27t37.5 -14.5t40 -4.5q43 0 74.5 18.5t31.5 56.5q0 33 -21 54.5t-69 34.5l-65 17q-64 17 -96.5 54t-32.5 91q0 31 12.5 55t34.5 41t52 26t65 9q40 0 71 -11.5t53 -30.5t35 -44t16 -53h-69
q-11 35 -39 56t-67 21t-66.5 -18.5t-27.5 -50.5q0 -29 18.5 -48.5t63.5 -31.5l77 -20q60 -15 92.5 -52.5t32.5 -93.5q0 -38 -13.5 -65t-37.5 -44t-56 -25.5t-69 -8.5z" />
    <glyph glyph-name="t" unicode="t" horiz-adv-x="367" 
d="M265 -5q-30 0 -56 8.5t-45 26.5t-30 45t-11 64v295h-107v66h107v139h70v-139h146v-66h-146v-289q0 -48 21.5 -66.5t61.5 -18.5q15 0 33 3t30 8v-63q-34 -13 -74 -13z" />
    <glyph glyph-name="u" unicode="u" horiz-adv-x="576" 
d="M261 -10q-40 0 -73.5 14t-58 39.5t-38 62t-13.5 81.5v313h70v-303q0 -65 34 -103.5t88 -38.5q31 0 58.5 13.5t48 39t32 62t11.5 81.5v249h70v-500h-70v84q-26 -48 -68.5 -71t-90.5 -23z" />
    <glyph glyph-name="v" unicode="v" horiz-adv-x="539" 
d="M8 500h78l183 -397l183 397h79l-234 -500h-55z" />
    <glyph glyph-name="w" unicode="w" horiz-adv-x="751" 
d="M375 381l-132 -381h-58l-171 500h72l129 -380l133 380h54l132 -380l130 380h73l-171 -500h-58z" />
    <glyph glyph-name="x" unicode="x" horiz-adv-x="518" 
d="M259 201l-163 -201h-89l208 256l-187 244h85l145 -189l146 189h86l-188 -245l208 -255h-88z" />
    <glyph glyph-name="y" unicode="y" horiz-adv-x="540" 
d="M122 -209l110 234l-222 475h78l183 -397l183 397h79l-332 -709h-79z" />
    <glyph glyph-name="z" unicode="z" horiz-adv-x="479" 
d="M40 56l302 379h-298v65h388v-57l-301 -378h310v-65h-401v56z" />
    <glyph glyph-name="braceleft" unicode="{" horiz-adv-x="308" 
d="M230 -160q-36 0 -60 9t-38 27t-19.5 45t-5.5 62v230q0 38 -10.5 56.5t-48.5 18.5h-17v63h17q38 0 48.5 18.5t10.5 56.5v231q0 71 25 107t97 36h54v-63h-48q-40 0 -51 -18.5t-11 -58.5v-227q0 -48 -10 -73t-42 -40q31 -17 41.5 -42t10.5 -72v-226q0 -41 11 -59t51 -18h48
v-63h-53z" />
    <glyph glyph-name="bar" unicode="|" horiz-adv-x="261" 
d="M97 710h67v-820h-67v820z" />
    <glyph glyph-name="braceright" unicode="}" horiz-adv-x="308" 
d="M25 -160v63h48q40 0 51 18t11 59v226q0 47 10.5 72t41.5 42q-32 15 -42 40t-10 73v227q0 40 -11 58.5t-51 18.5h-48v63h54q72 0 97 -36t25 -107v-231q0 -38 10.5 -56.5t48.5 -18.5h17v-63h-17q-38 0 -48.5 -18.5t-10.5 -56.5v-230q0 -35 -5.5 -62t-19.5 -45t-38 -27
t-60 -9h-53z" />
    <glyph glyph-name="uni00A0" unicode="&#xa0;" horiz-adv-x="245" 
 />
    <glyph glyph-name="exclamdown" unicode="&#xa1;" horiz-adv-x="252" 
d="M161 82v-291h-70v291l13 208h44zM126 378q-28 0 -47 20t-19 47t19 47t47 20t47 -20t19 -47t-19 -47t-47 -20z" />
    <glyph glyph-name="sterling" unicode="&#xa3;" horiz-adv-x="555" 
d="M53 392h59q-9 32 -15 64.5t-6 62.5q0 42 14.5 79t41.5 64.5t65.5 43.5t85.5 16q48 0 86.5 -17t66 -45.5t42.5 -66.5t15 -81h-70q-1 29 -11.5 55t-28.5 45.5t-43.5 30.5t-56.5 11q-62 0 -99.5 -38t-37.5 -97q0 -31 7 -63t18 -64h196v-54h-179q11 -34 18.5 -68t7.5 -69
q0 -45 -12 -78t-29 -55h320v-68h-455v68h49q26 22 42 53.5t16 74.5q0 28 -10 64t-22 78h-75v54z" />
    <glyph glyph-name="yen" unicode="&#xa5;" horiz-adv-x="658" 
d="M89 354h171l-229 356h84l214 -340l213 340h85l-229 -356h171v-54h-205v-74h205v-54h-205v-172h-70v172h-205v54h205v74h-205v54z" />
    <glyph glyph-name="dieresis" unicode="&#xa8;" 
d="M-110 602q-23 0 -38.5 15.5t-15.5 37.5t15.5 37.5t38.5 15.5q22 0 37 -15.5t15 -37.5t-15 -37.5t-37 -15.5zM112 602q-23 0 -38.5 15.5t-15.5 37.5t15.5 37.5t38.5 15.5q22 0 37 -15.5t15 -37.5t-15 -37.5t-37 -15.5z" />
    <glyph glyph-name="copyright" unicode="&#xa9;" horiz-adv-x="829" 
d="M419 163q-42 0 -77.5 15t-62 40.5t-41 60.5t-14.5 76t14.5 76t41 61t62 41t77.5 15q33 0 62.5 -10t53.5 -28t40.5 -42t23.5 -52h-72q-12 31 -41.5 49.5t-66.5 18.5q-29 0 -52.5 -10t-40 -27.5t-26 -41t-9.5 -50.5t9.5 -50.5t26 -40.5t40 -27t52.5 -10q37 0 66.5 18.5
t41.5 49.5h72q-7 -29 -23.5 -53t-40.5 -41.5t-53.5 -27.5t-62.5 -10zM414 55q62 0 116.5 23.5t95.5 64.5t65 95.5t24 116.5t-24 116.5t-65 95.5t-95.5 64.5t-116.5 23.5t-116.5 -23.5t-95 -64.5t-64.5 -95.5t-24 -116.5t24 -116.5t64.5 -95.5t95 -64.5t116.5 -23.5zM414 -12
q-75 0 -142 29t-117 79t-79 116.5t-29 142.5t29 142.5t79 116.5t117 79t142 29q76 0 143 -29t117 -79t79 -116.5t29 -142.5t-29 -142.5t-79 -116.5t-117 -79t-143 -29z" />
    <glyph glyph-name="guillemotleft" unicode="&#xab;" horiz-adv-x="462" 
d="M352 467h59l-116 -217l116 -217h-59l-141 217zM188 467h59l-116 -217l116 -217h-59l-141 217z" />
    <glyph glyph-name="uni00AD" unicode="&#xad;" horiz-adv-x="381" 
d="M68 316h245v-72h-245v72z" />
    <glyph glyph-name="macron" unicode="&#xaf;" 
d="M-158 710h316v-61h-316v61z" />
    <glyph glyph-name="degree" unicode="&#xb0;" horiz-adv-x="338" 
d="M169 523q29 0 49 20t20 49t-20 49t-49 20t-49 -20t-20 -49t20 -49t49 -20zM169 470q-25 0 -47.5 9.5t-39 26t-26 39t-9.5 47.5t9.5 47.5t26 39t39 26t47.5 9.5t47.5 -9.5t39 -26t26 -39t9.5 -47.5t-9.5 -47.5t-26 -39t-39 -26t-47.5 -9.5z" />
    <glyph glyph-name="acute" unicode="&#xb4;" 
d="M-3 750h95l-125 -190h-60z" />
    <glyph glyph-name="periodcentered" unicode="&#xb7;" horiz-adv-x="264" 
d="M132 202q-28 0 -47 20t-19 47t19 47t47 20t47 -20t19 -47t-19 -47t-47 -20z" />
    <glyph glyph-name="cedilla" unicode="&#xb8;" 
d="M-104 -152q16 -9 37 -13t39 -4q29 0 49.5 11t20.5 33q0 31 -47 31q-23 0 -46 -10l-32 21l52 86h52l-34 -56q12 6 37 6q34 0 56.5 -20t22.5 -56q0 -22 -10 -39.5t-27 -30t-40 -19.5t-50 -7q-19 0 -39.5 2.5t-40.5 12.5v52z" />
    <glyph glyph-name="guillemotright" unicode="&#xbb;" horiz-adv-x="462" 
d="M415 250l-141 -217h-59l116 217l-116 217h59zM251 250l-141 -217h-59l116 217l-116 217h59z" />
    <glyph glyph-name="questiondown" unicode="&#xbf;" horiz-adv-x="489" 
d="M296 253q0 -20 -9.5 -38.5t-24 -35.5t-30.5 -31t-29 -24q-22 -17 -39.5 -31.5t-29.5 -31t-18.5 -35t-6.5 -42.5q0 -28 9.5 -53t26.5 -43.5t41.5 -29t53.5 -10.5q33 0 60 11t47 30.5t31 46t11 58.5h70q0 -44 -16.5 -83t-45.5 -68t-69 -46t-88 -17q-46 0 -83 16.5t-63.5 45
t-40.5 65t-14 77.5q0 36 11 64.5t27.5 50.5t35.5 38.5t35 28.5q13 10 26.5 20.5t25 22.5t19 25.5t7.5 28.5v10h70v-20zM261 510q28 0 47 -20t19 -47t-19 -47t-47 -20t-47 20t-19 47t19 47t47 20z" />
    <glyph glyph-name="Agrave" unicode="&#xc0;" horiz-adv-x="710" 
d="M324 710h61l317 -710h-80l-99 221h-339l-98 -221h-78zM215 292h277l-139 311zM322 770l-112 157h94l80 -157h-62z" />
    <glyph glyph-name="Aacute" unicode="&#xc1;" horiz-adv-x="710" 
d="M324 710h61l317 -710h-80l-99 221h-339l-98 -221h-78zM215 292h277l-139 311zM411 927h94l-112 -157h-62z" />
    <glyph glyph-name="Acircumflex" unicode="&#xc2;" horiz-adv-x="710" 
d="M324 710h61l317 -710h-80l-99 221h-339l-98 -221h-78zM215 292h277l-139 311zM190 836l164 92l164 -92v-67l-164 92l-164 -92v67z" />
    <glyph glyph-name="Atilde" unicode="&#xc3;" horiz-adv-x="710" 
d="M324 710h61l317 -710h-80l-99 221h-339l-98 -221h-78zM215 292h277l-139 311zM189 804q8 39 35 64t67 25q19 0 36.5 -6.5t34 -15t31 -15t26.5 -6.5q33 0 43 43h61l-3 -16q-8 -39 -35 -64t-67 -25q-19 0 -36.5 6.5t-34 15t-31 15t-26.5 6.5q-33 0 -43 -43h-61z" />
    <glyph glyph-name="Adieresis" unicode="&#xc4;" horiz-adv-x="710" 
d="M324 710h61l317 -710h-80l-99 221h-339l-98 -221h-78zM215 292h277l-139 311zM244 789q-23 0 -38.5 15.5t-15.5 37.5t15.5 37.5t38.5 15.5q22 0 37 -15.5t15 -37.5t-15 -37.5t-37 -15.5zM466 789q-23 0 -38.5 15.5t-15.5 37.5t15.5 37.5t38.5 15.5q22 0 37 -15.5
t15 -37.5t-15 -37.5t-37 -15.5z" />
    <glyph glyph-name="Aring" unicode="&#xc5;" horiz-adv-x="710" 
d="M324 710h61l317 -710h-80l-99 221h-339l-98 -221h-78zM215 292h277l-139 311zM354 753q-25 0 -47 9.5t-38.5 26t-26 38t-9.5 46.5t9.5 46.5t26 38t38.5 26t47 9.5t47 -9.5t38.5 -26t26.5 -38t10 -46.5t-10 -46.5t-26.5 -38t-38.5 -26t-47 -9.5zM354 800q31 0 52.5 21
t21.5 52q0 30 -21.5 52t-52.5 22q-30 0 -51.5 -22t-21.5 -52q0 -31 21.5 -52t51.5 -21z" />
    <glyph glyph-name="AE" unicode="&#xc6;" horiz-adv-x="906" 
d="M451 221h-253l-134 -221h-86l433 710h445v-72h-329v-237h269v-72h-269v-257h329v-72h-405v221zM241 292h210v346h-1z" />
    <glyph glyph-name="Ccedilla" unicode="&#xc7;" horiz-adv-x="791" 
d="M415 -12q-77 0 -144 28t-116.5 77.5t-78 116.5t-28.5 145t28.5 145t78 116.5t116.5 77.5t144 28q69 0 127 -21t101.5 -55.5t71.5 -78t39 -89.5h-80q-12 36 -35.5 67t-57 54.5t-75.5 37t-91 13.5q-62 0 -115 -23t-92 -62.5t-61 -93.5t-22 -116t22 -116t61 -94t92 -62.5
t115 -22.5q49 0 91 13.5t75.5 37t57 54.5t35.5 67h80q-11 -46 -39 -89.5t-71.5 -78t-101.5 -55.5t-127 -21zM312 -152q16 -9 37 -13t39 -4q29 0 49.5 11t20.5 33q0 31 -47 31q-23 0 -46 -10l-32 21l52 86h52l-35 -57q14 7 38 7q34 0 56.5 -20t22.5 -56q0 -22 -10 -39.5
t-27 -30t-40 -19.5t-50 -7q-19 0 -39.5 2.5t-40.5 12.5v52z" />
    <glyph glyph-name="Egrave" unicode="&#xc8;" horiz-adv-x="554" 
d="M99 710h405v-72h-329v-237h269v-72h-269v-257h329v-72h-405v710zM269 770l-112 157h94l80 -157h-62z" />
    <glyph glyph-name="Eacute" unicode="&#xc9;" horiz-adv-x="554" 
d="M99 710h405v-72h-329v-237h269v-72h-269v-257h329v-72h-405v710zM358 927h94l-112 -157h-62z" />
    <glyph glyph-name="Ecircumflex" unicode="&#xca;" horiz-adv-x="554" 
d="M99 710h405v-72h-329v-237h269v-72h-269v-257h329v-72h-405v710zM137 836l164 92l164 -92v-67l-164 92l-164 -92v67z" />
    <glyph glyph-name="Edieresis" unicode="&#xcb;" horiz-adv-x="554" 
d="M99 710h405v-72h-329v-237h269v-72h-269v-257h329v-72h-405v710zM191 789q-23 0 -38.5 15.5t-15.5 37.5t15.5 37.5t38.5 15.5q22 0 37 -15.5t15 -37.5t-15 -37.5t-37 -15.5zM413 789q-23 0 -38.5 15.5t-15.5 37.5t15.5 37.5t38.5 15.5q22 0 37 -15.5t15 -37.5t-15 -37.5
t-37 -15.5z" />
    <glyph glyph-name="Igrave" unicode="&#xcc;" horiz-adv-x="274" 
d="M99 710h76v-710h-76v710zM105 770l-112 157h94l80 -157h-62z" />
    <glyph glyph-name="Iacute" unicode="&#xcd;" horiz-adv-x="274" 
d="M99 710h76v-710h-76v710zM194 927h94l-112 -157h-62z" />
    <glyph glyph-name="Icircumflex" unicode="&#xce;" horiz-adv-x="274" 
d="M99 710h76v-710h-76v710zM-27 836l164 92l164 -92v-67l-164 92l-164 -92v67z" />
    <glyph glyph-name="Idieresis" unicode="&#xcf;" horiz-adv-x="274" 
d="M99 710h76v-710h-76v710zM27 789q-23 0 -38.5 15.5t-15.5 37.5t15.5 37.5t38.5 15.5q22 0 37 -15.5t15 -37.5t-15 -37.5t-37 -15.5zM249 789q-23 0 -38.5 15.5t-15.5 37.5t15.5 37.5t38.5 15.5q22 0 37 -15.5t15 -37.5t-15 -37.5t-37 -15.5z" />
    <glyph glyph-name="Eth" unicode="&#xd0;" horiz-adv-x="728" 
d="M104 710h194q84 0 154 -26.5t120.5 -74t79 -112.5t28.5 -142t-28.5 -142t-79 -112.5t-120.5 -74t-154 -26.5h-194v710zM298 72q69 0 125.5 21t96 59t61.5 89.5t22 113.5q0 61 -22 113t-61.5 90t-96 59t-125.5 21h-118v-566h118zM30 394h320v-68h-320v68z" />
    <glyph glyph-name="Ntilde" unicode="&#xd1;" horiz-adv-x="794" 
d="M628 0l-453 581v-581h-76v710h67l453 -581v581h76v-710h-67zM227 804q8 39 35 64t67 25q19 0 36.5 -6.5t34 -15t31 -15t26.5 -6.5q33 0 43 43h61l-3 -16q-8 -39 -35 -64t-67 -25q-19 0 -36.5 6.5t-34 15t-31 15t-26.5 6.5q-33 0 -43 -43h-61z" />
    <glyph glyph-name="Ograve" unicode="&#xd2;" horiz-adv-x="830" 
d="M415 60q62 0 115 22.5t92 62.5t61 94t22 116t-22 116t-61 93.5t-92 62.5t-115 23t-115 -23t-92 -62.5t-61 -93.5t-22 -116t22 -116t61 -94t92 -62.5t115 -22.5zM415 -12q-77 0 -144 28t-116.5 77.5t-78 116.5t-28.5 145t28.5 145t78 116.5t116.5 77.5t144 28t144 -28
t116.5 -77.5t78 -116.5t28.5 -145t-28.5 -145t-78 -116.5t-116.5 -77.5t-144 -28zM383 770l-112 157h94l80 -157h-62z" />
    <glyph glyph-name="Oacute" unicode="&#xd3;" horiz-adv-x="830" 
d="M415 60q62 0 115 22.5t92 62.5t61 94t22 116t-22 116t-61 93.5t-92 62.5t-115 23t-115 -23t-92 -62.5t-61 -93.5t-22 -116t22 -116t61 -94t92 -62.5t115 -22.5zM415 -12q-77 0 -144 28t-116.5 77.5t-78 116.5t-28.5 145t28.5 145t78 116.5t116.5 77.5t144 28t144 -28
t116.5 -77.5t78 -116.5t28.5 -145t-28.5 -145t-78 -116.5t-116.5 -77.5t-144 -28zM472 927h94l-112 -157h-62z" />
    <glyph glyph-name="Ocircumflex" unicode="&#xd4;" horiz-adv-x="830" 
d="M415 60q62 0 115 22.5t92 62.5t61 94t22 116t-22 116t-61 93.5t-92 62.5t-115 23t-115 -23t-92 -62.5t-61 -93.5t-22 -116t22 -116t61 -94t92 -62.5t115 -22.5zM415 -12q-77 0 -144 28t-116.5 77.5t-78 116.5t-28.5 145t28.5 145t78 116.5t116.5 77.5t144 28t144 -28
t116.5 -77.5t78 -116.5t28.5 -145t-28.5 -145t-78 -116.5t-116.5 -77.5t-144 -28zM251 836l164 92l164 -92v-67l-164 92l-164 -92v67z" />
    <glyph glyph-name="Otilde" unicode="&#xd5;" horiz-adv-x="830" 
d="M415 60q62 0 115 22.5t92 62.5t61 94t22 116t-22 116t-61 93.5t-92 62.5t-115 23t-115 -23t-92 -62.5t-61 -93.5t-22 -116t22 -116t61 -94t92 -62.5t115 -22.5zM415 -12q-77 0 -144 28t-116.5 77.5t-78 116.5t-28.5 145t28.5 145t78 116.5t116.5 77.5t144 28t144 -28
t116.5 -77.5t78 -116.5t28.5 -145t-28.5 -145t-78 -116.5t-116.5 -77.5t-144 -28zM250 804q8 39 35 64t67 25q19 0 36.5 -6.5t34 -15t31 -15t26.5 -6.5q33 0 43 43h61l-3 -16q-8 -39 -35 -64t-67 -25q-19 0 -36.5 6.5t-34 15t-31 15t-26.5 6.5q-33 0 -43 -43h-61z" />
    <glyph glyph-name="Odieresis" unicode="&#xd6;" horiz-adv-x="830" 
d="M415 60q62 0 115 22.5t92 62.5t61 94t22 116t-22 116t-61 93.5t-92 62.5t-115 23t-115 -23t-92 -62.5t-61 -93.5t-22 -116t22 -116t61 -94t92 -62.5t115 -22.5zM415 -12q-77 0 -144 28t-116.5 77.5t-78 116.5t-28.5 145t28.5 145t78 116.5t116.5 77.5t144 28t144 -28
t116.5 -77.5t78 -116.5t28.5 -145t-28.5 -145t-78 -116.5t-116.5 -77.5t-144 -28zM305 789q-23 0 -38.5 15.5t-15.5 37.5t15.5 37.5t38.5 15.5q22 0 37 -15.5t15 -37.5t-15 -37.5t-37 -15.5zM527 789q-23 0 -38.5 15.5t-15.5 37.5t15.5 37.5t38.5 15.5q22 0 37 -15.5
t15 -37.5t-15 -37.5t-37 -15.5z" />
    <glyph glyph-name="multiply" unicode="&#xd7;" horiz-adv-x="502" 
d="M57 145l147 145l-147 145l47 46l147 -144l147 144l47 -46l-147 -145l147 -145l-47 -46l-147 144l-147 -144z" />
    <glyph glyph-name="Oslash" unicode="&#xd8;" horiz-adv-x="830" 
d="M415 60q62 0 115 22.5t92 62.5t61 94t22 116t-22 116t-61 93.5t-92 62.5t-115 23t-115 -23t-92 -62.5t-61 -93.5t-22 -116t22 -116t61 -94t92 -62.5t115 -22.5zM415 -12q-77 0 -144 28t-116.5 77.5t-78 116.5t-28.5 145t28.5 145t78 116.5t116.5 77.5t144 28t144 -28
t116.5 -77.5t78 -116.5t28.5 -145t-28.5 -145t-78 -116.5t-116.5 -77.5t-144 -28zM132 -20l-47 42l614 708l47 -41z" />
    <glyph glyph-name="Ugrave" unicode="&#xd9;" horiz-adv-x="728" 
d="M364 -12q-61 0 -111.5 20t-86.5 57t-56 90.5t-20 119.5v435h76v-437q0 -51 14 -91t40 -67t62.5 -41t81.5 -14t81.5 14t62.5 41t40 67t14 91v437h76v-435q0 -66 -20 -119.5t-56 -90.5t-86.5 -57t-111.5 -20zM332 770l-112 157h94l80 -157h-62z" />
    <glyph glyph-name="Uacute" unicode="&#xda;" horiz-adv-x="728" 
d="M364 -12q-61 0 -111.5 20t-86.5 57t-56 90.5t-20 119.5v435h76v-437q0 -51 14 -91t40 -67t62.5 -41t81.5 -14t81.5 14t62.5 41t40 67t14 91v437h76v-435q0 -66 -20 -119.5t-56 -90.5t-86.5 -57t-111.5 -20zM421 927h94l-112 -157h-62z" />
    <glyph glyph-name="Ucircumflex" unicode="&#xdb;" horiz-adv-x="728" 
d="M364 -12q-61 0 -111.5 20t-86.5 57t-56 90.5t-20 119.5v435h76v-437q0 -51 14 -91t40 -67t62.5 -41t81.5 -14t81.5 14t62.5 41t40 67t14 91v437h76v-435q0 -66 -20 -119.5t-56 -90.5t-86.5 -57t-111.5 -20zM200 836l164 92l164 -92v-67l-164 92l-164 -92v67z" />
    <glyph glyph-name="Udieresis" unicode="&#xdc;" horiz-adv-x="728" 
d="M364 -12q-61 0 -111.5 20t-86.5 57t-56 90.5t-20 119.5v435h76v-437q0 -51 14 -91t40 -67t62.5 -41t81.5 -14t81.5 14t62.5 41t40 67t14 91v437h76v-435q0 -66 -20 -119.5t-56 -90.5t-86.5 -57t-111.5 -20zM254 789q-23 0 -38.5 15.5t-15.5 37.5t15.5 37.5t38.5 15.5
q22 0 37 -15.5t15 -37.5t-15 -37.5t-37 -15.5zM476 789q-23 0 -38.5 15.5t-15.5 37.5t15.5 37.5t38.5 15.5q22 0 37 -15.5t15 -37.5t-15 -37.5t-37 -15.5z" />
    <glyph glyph-name="Yacute" unicode="&#xdd;" horiz-adv-x="669" 
d="M297 301l-280 409h92l226 -331l226 331h92l-281 -410v-300h-75v301zM391 927h94l-112 -157h-62z" />
    <glyph glyph-name="Thorn" unicode="&#xde;" horiz-adv-x="594" 
d="M552 355q0 -47 -17 -87.5t-48.5 -70t-76 -46.5t-100.5 -17h-135v-134h-76v710h76v-133h135q56 0 100.5 -17t76 -47t48.5 -70.5t17 -87.5zM475 355q0 32 -10.5 59.5t-31.5 48t-52 32t-71 11.5h-135v-301h135q40 0 71 11.5t52 31.5t31.5 47.5t10.5 59.5z" />
    <glyph glyph-name="germandbls" unicode="&#xdf;" horiz-adv-x="569" 
d="M86 553q0 45 15.5 82.5t42 64.5t62.5 41.5t77 14.5q40 0 76.5 -14.5t63.5 -40t43 -59.5t16 -73q0 -52 -25 -94.5t-69 -66.5q34 -12 59.5 -33t43 -46.5t26.5 -54.5t9 -59q0 -41 -15 -80t-44.5 -69t-72 -48t-96.5 -18h-55v67h52q35 0 64.5 11t50.5 31t33 47.5t12 60.5
q0 32 -12 59.5t-33 47.5t-50.5 31.5t-64.5 11.5h-49v67h28q30 0 55 10t43.5 27t28.5 40.5t10 49.5q0 27 -9.5 50t-27 40.5t-40.5 27.5t-50 10t-50.5 -10t-41 -28.5t-27 -44t-9.5 -55.5v-551h-70v553z" />
    <glyph glyph-name="agrave" unicode="&#xe0;" horiz-adv-x="634" 
d="M293 -10q-53 0 -98.5 20.5t-79 56t-52.5 82.5t-19 101t19 101t52.5 82.5t79 56t98.5 20.5q58 0 108 -26.5t77 -67.5v84h70v-500h-70v84q-27 -41 -77 -67.5t-108 -26.5zM300 55q41 0 75 15.5t58 41.5t37.5 61.5t13.5 76.5q0 40 -13.5 76t-37.5 62t-58 41.5t-75 15.5
t-75 -15.5t-58 -41.5t-37.5 -62t-13.5 -76q0 -41 13.5 -76.5t37.5 -61.5t58 -41.5t75 -15.5zM161 750h95l90 -190h-60z" />
    <glyph glyph-name="aacute" unicode="&#xe1;" horiz-adv-x="634" 
d="M293 -10q-53 0 -98.5 20.5t-79 56t-52.5 82.5t-19 101t19 101t52.5 82.5t79 56t98.5 20.5q58 0 108 -26.5t77 -67.5v84h70v-500h-70v84q-27 -41 -77 -67.5t-108 -26.5zM300 55q41 0 75 15.5t58 41.5t37.5 61.5t13.5 76.5q0 40 -13.5 76t-37.5 62t-58 41.5t-75 15.5
t-75 -15.5t-58 -41.5t-37.5 -62t-13.5 -76q0 -41 13.5 -76.5t37.5 -61.5t58 -41.5t75 -15.5zM384 750h95l-125 -190h-60z" />
    <glyph glyph-name="acircumflex" unicode="&#xe2;" horiz-adv-x="634" 
d="M293 -10q-53 0 -98.5 20.5t-79 56t-52.5 82.5t-19 101t19 101t52.5 82.5t79 56t98.5 20.5q58 0 108 -26.5t77 -67.5v84h70v-500h-70v84q-27 -41 -77 -67.5t-108 -26.5zM300 55q41 0 75 15.5t58 41.5t37.5 61.5t13.5 76.5q0 40 -13.5 76t-37.5 62t-58 41.5t-75 15.5
t-75 -15.5t-58 -41.5t-37.5 -62t-13.5 -76q0 -41 13.5 -76.5t37.5 -61.5t58 -41.5t75 -15.5zM474 654v-70l-154 102l-154 -102v70l154 102z" />
    <glyph glyph-name="atilde" unicode="&#xe3;" horiz-adv-x="634" 
d="M293 -10q-53 0 -98.5 20.5t-79 56t-52.5 82.5t-19 101t19 101t52.5 82.5t79 56t98.5 20.5q58 0 108 -26.5t77 -67.5v84h70v-500h-70v84q-27 -41 -77 -67.5t-108 -26.5zM300 55q41 0 75 15.5t58 41.5t37.5 61.5t13.5 76.5q0 40 -13.5 76t-37.5 62t-58 41.5t-75 15.5
t-75 -15.5t-58 -41.5t-37.5 -62t-13.5 -76q0 -41 13.5 -76.5t37.5 -61.5t58 -41.5t75 -15.5zM154 616q8 39 35 64t67 25q19 0 36.5 -6.5t34 -15t31 -15t26.5 -6.5q33 0 43 43h61l-3 -16q-8 -39 -35 -64t-67 -25q-19 0 -36.5 6.5t-34 15t-31 15t-26.5 6.5q-33 0 -43 -43h-61z
" />
    <glyph glyph-name="adieresis" unicode="&#xe4;" horiz-adv-x="634" 
d="M293 -10q-53 0 -98.5 20.5t-79 56t-52.5 82.5t-19 101t19 101t52.5 82.5t79 56t98.5 20.5q58 0 108 -26.5t77 -67.5v84h70v-500h-70v84q-27 -41 -77 -67.5t-108 -26.5zM300 55q41 0 75 15.5t58 41.5t37.5 61.5t13.5 76.5q0 40 -13.5 76t-37.5 62t-58 41.5t-75 15.5
t-75 -15.5t-58 -41.5t-37.5 -62t-13.5 -76q0 -41 13.5 -76.5t37.5 -61.5t58 -41.5t75 -15.5zM210 602q-23 0 -38.5 15.5t-15.5 37.5t15.5 37.5t38.5 15.5q22 0 37 -15.5t15 -37.5t-15 -37.5t-37 -15.5zM432 602q-23 0 -38.5 15.5t-15.5 37.5t15.5 37.5t38.5 15.5
q22 0 37 -15.5t15 -37.5t-15 -37.5t-37 -15.5z" />
    <glyph glyph-name="aring" unicode="&#xe5;" horiz-adv-x="634" 
d="M293 -10q-53 0 -98.5 20.5t-79 56t-52.5 82.5t-19 101t19 101t52.5 82.5t79 56t98.5 20.5q58 0 108 -26.5t77 -67.5v84h70v-500h-70v84q-27 -41 -77 -67.5t-108 -26.5zM300 55q41 0 75 15.5t58 41.5t37.5 61.5t13.5 76.5q0 40 -13.5 76t-37.5 62t-58 41.5t-75 15.5
t-75 -15.5t-58 -41.5t-37.5 -62t-13.5 -76q0 -41 13.5 -76.5t37.5 -61.5t58 -41.5t75 -15.5zM320 543q-25 0 -47 9.5t-38.5 26t-26 38t-9.5 46.5t9.5 46.5t26 38t38.5 26t47 9.5t47 -9.5t38.5 -26t26.5 -38t10 -46.5t-10 -46.5t-26.5 -38t-38.5 -26t-47 -9.5zM320 590
q31 0 52.5 21t21.5 52q0 30 -21.5 52t-52.5 22q-30 0 -51.5 -22t-21.5 -52q0 -31 21.5 -52t51.5 -21z" />
    <glyph glyph-name="ae" unicode="&#xe6;" horiz-adv-x="898" 
d="M616 -10q-24 0 -51 5t-53 17t-51.5 32t-46.5 49q-29 -55 -80.5 -79t-115.5 -24q-44 0 -77 12.5t-55 33t-32.5 46.5t-10.5 52q0 36 15 61.5t43 43.5t66.5 30.5t86.5 22.5q31 7 54 12.5t37.5 12.5t21.5 17t7 26q0 35 -26.5 60t-85.5 25q-60 0 -96.5 -28.5t-38.5 -79.5h-72
q0 36 15.5 67.5t42.5 55t65 37t84 13.5q57 0 100 -22t65 -71q29 42 79.5 67.5t112.5 25.5q60 0 105.5 -23.5t75.5 -62.5t43.5 -89.5t8.5 -104.5h-412q0 -39 15 -71t39 -55t55.5 -36t66.5 -13q50 0 90 21t66 73h72q-9 -32 -28 -61t-47.5 -50.5t-66.5 -34.5t-86 -13zM616 445
q-28 0 -55.5 -8t-51.5 -26.5t-41 -48t-24 -71.5h336q-12 75 -56.5 114.5t-107.5 39.5zM376 190v80q-10 -6 -28 -12.5t-38.5 -12.5t-40 -11.5t-33.5 -9.5q-33 -8 -54.5 -16.5t-34.5 -19t-18.5 -23t-5.5 -29.5q0 -40 30 -60.5t75 -20.5q68 0 108 32t40 103z" />
    <glyph glyph-name="ccedilla" unicode="&#xe7;" horiz-adv-x="590" 
d="M305 -10q-57 0 -105 20.5t-82.5 56t-54 82.5t-19.5 101t19.5 101t54 82.5t82.5 56t105 20.5q46 0 86.5 -13.5t73.5 -37.5t56 -57.5t34 -72.5h-76q-17 51 -64 83.5t-110 32.5q-43 0 -78 -15.5t-59.5 -42t-38 -62t-13.5 -75.5t13.5 -75.5t38 -62t59.5 -42t78 -15.5
q63 0 110 32.5t64 83.5h76q-11 -39 -34 -72.5t-56 -57.5t-73.5 -37.5t-86.5 -13.5zM202 -152q16 -9 37 -13t39 -4q29 0 49.5 11t20.5 33q0 31 -47 31q-23 0 -46 -10l-32 21l52 86h52l-34 -56q12 6 37 6q34 0 56.5 -20t22.5 -56q0 -22 -10 -39.5t-27 -30t-40 -19.5t-50 -7
q-19 0 -39.5 2.5t-40.5 12.5v52z" />
    <glyph glyph-name="egrave" unicode="&#xe8;" horiz-adv-x="575" 
d="M293 -10q-54 0 -99.5 19.5t-78.5 54.5t-51.5 82.5t-18.5 103.5q0 54 17 101.5t49.5 83t79 55.5t105.5 20q60 0 105.5 -23.5t75.5 -62.5t43.5 -89.5t8.5 -104.5h-412q0 -39 15 -71t39 -55t55.5 -36t66.5 -13q50 0 90 21t66 73h72q-9 -32 -28 -61t-47.5 -50.5t-66.5 -34.5
t-86 -13zM293 445q-28 0 -55.5 -8t-51.5 -26.5t-41 -48t-24 -71.5h336q-12 75 -56.5 114.5t-107.5 39.5zM135 750h95l90 -190h-60z" />
    <glyph glyph-name="eacute" unicode="&#xe9;" horiz-adv-x="575" 
d="M293 -10q-54 0 -99.5 19.5t-78.5 54.5t-51.5 82.5t-18.5 103.5q0 54 17 101.5t49.5 83t79 55.5t105.5 20q60 0 105.5 -23.5t75.5 -62.5t43.5 -89.5t8.5 -104.5h-412q0 -39 15 -71t39 -55t55.5 -36t66.5 -13q50 0 90 21t66 73h72q-9 -32 -28 -61t-47.5 -50.5t-66.5 -34.5
t-86 -13zM293 445q-28 0 -55.5 -8t-51.5 -26.5t-41 -48t-24 -71.5h336q-12 75 -56.5 114.5t-107.5 39.5zM358 750h95l-125 -190h-60z" />
    <glyph glyph-name="ecircumflex" unicode="&#xea;" horiz-adv-x="575" 
d="M293 -10q-54 0 -99.5 19.5t-78.5 54.5t-51.5 82.5t-18.5 103.5q0 54 17 101.5t49.5 83t79 55.5t105.5 20q60 0 105.5 -23.5t75.5 -62.5t43.5 -89.5t8.5 -104.5h-412q0 -39 15 -71t39 -55t55.5 -36t66.5 -13q50 0 90 21t66 73h72q-9 -32 -28 -61t-47.5 -50.5t-66.5 -34.5
t-86 -13zM293 445q-28 0 -55.5 -8t-51.5 -26.5t-41 -48t-24 -71.5h336q-12 75 -56.5 114.5t-107.5 39.5zM448 654v-70l-154 102l-154 -102v70l154 102z" />
    <glyph glyph-name="edieresis" unicode="&#xeb;" horiz-adv-x="575" 
d="M293 -10q-54 0 -99.5 19.5t-78.5 54.5t-51.5 82.5t-18.5 103.5q0 54 17 101.5t49.5 83t79 55.5t105.5 20q60 0 105.5 -23.5t75.5 -62.5t43.5 -89.5t8.5 -104.5h-412q0 -39 15 -71t39 -55t55.5 -36t66.5 -13q50 0 90 21t66 73h72q-9 -32 -28 -61t-47.5 -50.5t-66.5 -34.5
t-86 -13zM293 445q-28 0 -55.5 -8t-51.5 -26.5t-41 -48t-24 -71.5h336q-12 75 -56.5 114.5t-107.5 39.5zM184 602q-23 0 -38.5 15.5t-15.5 37.5t15.5 37.5t38.5 15.5q22 0 37 -15.5t15 -37.5t-15 -37.5t-37 -15.5zM406 602q-23 0 -38.5 15.5t-15.5 37.5t15.5 37.5t38.5 15.5
q22 0 37 -15.5t15 -37.5t-15 -37.5t-37 -15.5z" />
    <glyph glyph-name="igrave" unicode="&#xec;" horiz-adv-x="242" 
d="M86 500h70v-500h-70v500zM-38 750h95l90 -190h-60z" />
    <glyph glyph-name="iacute" unicode="&#xed;" horiz-adv-x="242" 
d="M86 500h70v-500h-70v500zM185 750h95l-125 -190h-60z" />
    <glyph glyph-name="icircumflex" unicode="&#xee;" horiz-adv-x="242" 
d="M86 500h70v-500h-70v500zM275 654v-70l-154 102l-154 -102v70l154 102z" />
    <glyph glyph-name="idieresis" unicode="&#xef;" horiz-adv-x="242" 
d="M86 500h70v-500h-70v500zM22 602q-23 0 -39.5 16.5t-16.5 39.5t16.5 39t39.5 16t39.5 -16t16.5 -39t-16.5 -39.5t-39.5 -16.5zM220 602q-23 0 -39.5 16.5t-16.5 39.5t16.5 39t39.5 16t39.5 -16t16.5 -39t-16.5 -39.5t-39.5 -16.5z" />
    <glyph glyph-name="eth" unicode="&#xf0;" horiz-adv-x="610" 
d="M398 578l113 -165q24 -35 39.5 -75.5t15.5 -87.5q0 -54 -19.5 -101t-54 -82.5t-82.5 -56t-105 -20.5t-105 20.5t-82.5 56t-54 82.5t-19.5 101t19.5 101t54 82.5t82.5 56t105 20.5q14 0 29 -1.5t38 -6.5l-51 76h-144v61h102l-75 111h77l76 -111h126v-61h-85zM305 55
q43 0 77.5 15.5t59.5 42t38.5 62t13.5 75.5t-13.5 75.5t-38.5 62t-59.5 42t-77.5 15.5t-78 -15.5t-59.5 -42t-38 -62t-13.5 -75.5t13.5 -75.5t38 -62t59.5 -42t78 -15.5z" />
    <glyph glyph-name="ntilde" unicode="&#xf1;" horiz-adv-x="586" 
d="M86 500h70v-84q27 50 71 72t93 22q41 0 75.5 -13.5t59.5 -39t39 -62t14 -82.5v-313h-70v303q0 66 -35 104t-91 38q-33 0 -61.5 -13t-49.5 -38.5t-33 -62t-12 -82.5v-249h-70v500zM131 616q8 39 35 64t67 25q19 0 36.5 -6.5t34 -15t31 -15t26.5 -6.5q33 0 43 43h61l-3 -16
q-8 -39 -35 -64t-67 -25q-19 0 -36.5 6.5t-34 15t-31 15t-26.5 6.5q-33 0 -43 -43h-61z" />
    <glyph glyph-name="ograve" unicode="&#xf2;" horiz-adv-x="610" 
d="M305 -10q-57 0 -105 20.5t-82.5 56t-54 82.5t-19.5 101t19.5 101t54 82.5t82.5 56t105 20.5t105 -20.5t82.5 -56t54 -82.5t19.5 -101t-19.5 -101t-54 -82.5t-82.5 -56t-105 -20.5zM305 55q43 0 77.5 15.5t59.5 42t38.5 62t13.5 75.5t-13.5 75.5t-38.5 62t-59.5 42
t-77.5 15.5t-78 -15.5t-59.5 -42t-38 -62t-13.5 -75.5t13.5 -75.5t38 -62t59.5 -42t78 -15.5zM146 750h95l90 -190h-60z" />
    <glyph glyph-name="oacute" unicode="&#xf3;" horiz-adv-x="610" 
d="M305 -10q-57 0 -105 20.5t-82.5 56t-54 82.5t-19.5 101t19.5 101t54 82.5t82.5 56t105 20.5t105 -20.5t82.5 -56t54 -82.5t19.5 -101t-19.5 -101t-54 -82.5t-82.5 -56t-105 -20.5zM305 55q43 0 77.5 15.5t59.5 42t38.5 62t13.5 75.5t-13.5 75.5t-38.5 62t-59.5 42
t-77.5 15.5t-78 -15.5t-59.5 -42t-38 -62t-13.5 -75.5t13.5 -75.5t38 -62t59.5 -42t78 -15.5zM369 750h95l-125 -190h-60z" />
    <glyph glyph-name="ocircumflex" unicode="&#xf4;" horiz-adv-x="610" 
d="M305 -10q-57 0 -105 20.5t-82.5 56t-54 82.5t-19.5 101t19.5 101t54 82.5t82.5 56t105 20.5t105 -20.5t82.5 -56t54 -82.5t19.5 -101t-19.5 -101t-54 -82.5t-82.5 -56t-105 -20.5zM305 55q43 0 77.5 15.5t59.5 42t38.5 62t13.5 75.5t-13.5 75.5t-38.5 62t-59.5 42
t-77.5 15.5t-78 -15.5t-59.5 -42t-38 -62t-13.5 -75.5t13.5 -75.5t38 -62t59.5 -42t78 -15.5zM459 654v-70l-154 102l-154 -102v70l154 102z" />
    <glyph glyph-name="otilde" unicode="&#xf5;" horiz-adv-x="610" 
d="M305 -10q-57 0 -105 20.5t-82.5 56t-54 82.5t-19.5 101t19.5 101t54 82.5t82.5 56t105 20.5t105 -20.5t82.5 -56t54 -82.5t19.5 -101t-19.5 -101t-54 -82.5t-82.5 -56t-105 -20.5zM305 55q43 0 77.5 15.5t59.5 42t38.5 62t13.5 75.5t-13.5 75.5t-38.5 62t-59.5 42
t-77.5 15.5t-78 -15.5t-59.5 -42t-38 -62t-13.5 -75.5t13.5 -75.5t38 -62t59.5 -42t78 -15.5zM139 616q8 39 35 64t67 25q19 0 36.5 -6.5t34 -15t31 -15t26.5 -6.5q33 0 43 43h61l-3 -16q-8 -39 -35 -64t-67 -25q-19 0 -36.5 6.5t-34 15t-31 15t-26.5 6.5q-33 0 -43 -43h-61
z" />
    <glyph glyph-name="odieresis" unicode="&#xf6;" horiz-adv-x="610" 
d="M305 -10q-57 0 -105 20.5t-82.5 56t-54 82.5t-19.5 101t19.5 101t54 82.5t82.5 56t105 20.5t105 -20.5t82.5 -56t54 -82.5t19.5 -101t-19.5 -101t-54 -82.5t-82.5 -56t-105 -20.5zM305 55q43 0 77.5 15.5t59.5 42t38.5 62t13.5 75.5t-13.5 75.5t-38.5 62t-59.5 42
t-77.5 15.5t-78 -15.5t-59.5 -42t-38 -62t-13.5 -75.5t13.5 -75.5t38 -62t59.5 -42t78 -15.5zM195 602q-23 0 -38.5 15.5t-15.5 37.5t15.5 37.5t38.5 15.5q22 0 37 -15.5t15 -37.5t-15 -37.5t-37 -15.5zM417 602q-23 0 -38.5 15.5t-15.5 37.5t15.5 37.5t38.5 15.5
q22 0 37 -15.5t15 -37.5t-15 -37.5t-37 -15.5z" />
    <glyph glyph-name="oslash" unicode="&#xf8;" horiz-adv-x="622" 
d="M311 -10q-57 0 -105 20.5t-82.5 56t-54 82.5t-19.5 101t19.5 101t54 82.5t82.5 56t105 20.5t105 -20.5t82.5 -56t54 -82.5t19.5 -101t-19.5 -101t-54 -82.5t-82.5 -56t-105 -20.5zM311 55q43 0 77.5 15.5t59.5 42t38.5 62t13.5 75.5t-13.5 75.5t-38.5 62t-59.5 42
t-77.5 15.5t-78 -15.5t-59.5 -42t-38 -62t-13.5 -75.5t13.5 -75.5t38 -62t59.5 -42t78 -15.5zM96 -10l-39 38l470 482l38 -37z" />
    <glyph glyph-name="ugrave" unicode="&#xf9;" horiz-adv-x="576" 
d="M261 -10q-40 0 -73.5 14t-58 39.5t-38 62t-13.5 81.5v313h70v-303q0 -65 34 -103.5t88 -38.5q31 0 58.5 13.5t48 39t32 62t11.5 81.5v249h70v-500h-70v84q-26 -48 -68.5 -71t-90.5 -23zM124 750h95l90 -190h-60z" />
    <glyph glyph-name="uacute" unicode="&#xfa;" horiz-adv-x="576" 
d="M261 -10q-40 0 -73.5 14t-58 39.5t-38 62t-13.5 81.5v313h70v-303q0 -65 34 -103.5t88 -38.5q31 0 58.5 13.5t48 39t32 62t11.5 81.5v249h70v-500h-70v84q-26 -48 -68.5 -71t-90.5 -23zM347 750h95l-125 -190h-60z" />
    <glyph glyph-name="ucircumflex" unicode="&#xfb;" horiz-adv-x="576" 
d="M261 -10q-40 0 -73.5 14t-58 39.5t-38 62t-13.5 81.5v313h70v-303q0 -65 34 -103.5t88 -38.5q31 0 58.5 13.5t48 39t32 62t11.5 81.5v249h70v-500h-70v84q-26 -48 -68.5 -71t-90.5 -23zM437 654v-70l-154 102l-154 -102v70l154 102z" />
    <glyph glyph-name="udieresis" unicode="&#xfc;" horiz-adv-x="576" 
d="M261 -10q-40 0 -73.5 14t-58 39.5t-38 62t-13.5 81.5v313h70v-303q0 -65 34 -103.5t88 -38.5q31 0 58.5 13.5t48 39t32 62t11.5 81.5v249h70v-500h-70v84q-26 -48 -68.5 -71t-90.5 -23zM173 602q-23 0 -38.5 15.5t-15.5 37.5t15.5 37.5t38.5 15.5q22 0 37 -15.5t15 -37.5
t-15 -37.5t-37 -15.5zM395 602q-23 0 -38.5 15.5t-15.5 37.5t15.5 37.5t38.5 15.5q22 0 37 -15.5t15 -37.5t-15 -37.5t-37 -15.5z" />
    <glyph glyph-name="yacute" unicode="&#xfd;" horiz-adv-x="540" 
d="M122 -209l110 234l-222 475h78l183 -397l183 397h79l-332 -709h-79zM335 750h95l-125 -190h-60z" />
    <glyph glyph-name="thorn" unicode="&#xfe;" horiz-adv-x="634" 
d="M86 -209v959h70v-334q27 41 77 67.5t108 26.5q53 0 98.5 -20.5t79 -56t52.5 -82.5t19 -101t-19 -101t-52.5 -82.5t-79 -56t-98.5 -20.5q-58 0 -108 26.5t-77 67.5v-293h-70zM334 55q41 0 75 15.5t58 41.5t37.5 61.5t13.5 76.5q0 40 -13.5 76t-37.5 62t-58 41.5t-75 15.5
t-75 -15.5t-58 -41.5t-37.5 -62t-13.5 -76q0 -41 13.5 -76.5t37.5 -61.5t58 -41.5t75 -15.5z" />
    <glyph glyph-name="ydieresis" unicode="&#xff;" horiz-adv-x="540" 
d="M122 -209l110 234l-222 475h78l183 -397l183 397h79l-332 -709h-79zM161 602q-23 0 -38.5 15.5t-15.5 37.5t15.5 37.5t38.5 15.5q22 0 37 -15.5t15 -37.5t-15 -37.5t-37 -15.5zM383 602q-23 0 -38.5 15.5t-15.5 37.5t15.5 37.5t38.5 15.5q22 0 37 -15.5t15 -37.5
t-15 -37.5t-37 -15.5z" />
    <glyph glyph-name="Abreve" unicode="&#x102;" horiz-adv-x="710" 
d="M324 710h61l317 -710h-80l-99 221h-339l-98 -221h-78zM215 292h277l-139 311zM354 762q-32 0 -60 10.5t-49 30.5t-33 48.5t-12 63.5h51q0 -50 30 -76.5t73 -26.5t73 26.5t30 76.5h51q0 -35 -12 -63.5t-33 -48.5t-49 -30.5t-60 -10.5z" />
    <glyph glyph-name="Amacron" unicode="&#x100;" horiz-adv-x="710" 
d="M324 710h61l317 -710h-80l-99 221h-339l-98 -221h-78zM215 292h277l-139 311zM196 870h316v-61h-316v61z" />
    <glyph glyph-name="Aogonek" unicode="&#x104;" horiz-adv-x="710" 
d="M324 710h61l317 -710q-51 -34 -72 -65.5t-21 -53.5q0 -19 10.5 -27.5t25.5 -8.5q19 0 32 7t25 17v-63q-13 -11 -30.5 -18t-43.5 -7q-37 0 -63.5 24t-26.5 62q0 24 8 43.5t20.5 36t27 29.5t28.5 24l-99 221h-339l-98 -221h-78zM215 292h277l-139 311z" />
    <glyph glyph-name="Cacute" unicode="&#x106;" horiz-adv-x="791" 
d="M415 -12q-77 0 -144 28t-116.5 77.5t-78 116.5t-28.5 145t28.5 145t78 116.5t116.5 77.5t144 28q69 0 127 -21t101.5 -55.5t71.5 -78t39 -89.5h-80q-12 36 -35.5 67t-57 54.5t-75.5 37t-91 13.5q-62 0 -115 -23t-92 -62.5t-61 -93.5t-22 -116t22 -116t61 -94t92 -62.5
t115 -22.5q49 0 91 13.5t75.5 37t57 54.5t35.5 67h80q-11 -46 -39 -89.5t-71.5 -78t-101.5 -55.5t-127 -21zM467 927h94l-112 -157h-62z" />
    <glyph glyph-name="Ccaron" unicode="&#x10c;" horiz-adv-x="791" 
d="M415 -12q-77 0 -144 28t-116.5 77.5t-78 116.5t-28.5 145t28.5 145t78 116.5t116.5 77.5t144 28q69 0 127 -21t101.5 -55.5t71.5 -78t39 -89.5h-80q-12 36 -35.5 67t-57 54.5t-75.5 37t-91 13.5q-62 0 -115 -23t-92 -62.5t-61 -93.5t-22 -116t22 -116t61 -94t92 -62.5
t115 -22.5q49 0 91 13.5t75.5 37t57 54.5t35.5 67h80q-11 -46 -39 -89.5t-71.5 -78t-101.5 -55.5t-127 -21zM246 861v67l164 -92l164 92v-67l-164 -92z" />
    <glyph glyph-name="Ccircumflex" unicode="&#x108;" horiz-adv-x="791" 
d="M415 -12q-77 0 -144 28t-116.5 77.5t-78 116.5t-28.5 145t28.5 145t78 116.5t116.5 77.5t144 28q69 0 127 -21t101.5 -55.5t71.5 -78t39 -89.5h-80q-12 36 -35.5 67t-57 54.5t-75.5 37t-91 13.5q-62 0 -115 -23t-92 -62.5t-61 -93.5t-22 -116t22 -116t61 -94t92 -62.5
t115 -22.5q49 0 91 13.5t75.5 37t57 54.5t35.5 67h80q-11 -46 -39 -89.5t-71.5 -78t-101.5 -55.5t-127 -21zM246 836l164 92l164 -92v-67l-164 92l-164 -92v67z" />
    <glyph glyph-name="Cdotaccent" unicode="&#x10a;" horiz-adv-x="791" 
d="M415 -12q-77 0 -144 28t-116.5 77.5t-78 116.5t-28.5 145t28.5 145t78 116.5t116.5 77.5t144 28q69 0 127 -21t101.5 -55.5t71.5 -78t39 -89.5h-80q-12 36 -35.5 67t-57 54.5t-75.5 37t-91 13.5q-62 0 -115 -23t-92 -62.5t-61 -93.5t-22 -116t22 -116t61 -94t92 -62.5
t115 -22.5q49 0 91 13.5t75.5 37t57 54.5t35.5 67h80q-11 -46 -39 -89.5t-71.5 -78t-101.5 -55.5t-127 -21zM410 789q-23 0 -38.5 15.5t-15.5 37.5t15.5 37.5t38.5 15.5q22 0 37 -15.5t15 -37.5t-15 -37.5t-37 -15.5z" />
    <glyph glyph-name="Dcaron" unicode="&#x10e;" horiz-adv-x="723" 
d="M99 710h194q84 0 154 -26.5t120.5 -74t79 -112.5t28.5 -142t-28.5 -142t-79 -112.5t-120.5 -74t-154 -26.5h-194v710zM293 72q69 0 125.5 21t96 59t61.5 89.5t22 113.5q0 61 -22 113t-61.5 90t-96 59t-125.5 21h-118v-566h118zM178 861v67l164 -92l164 92v-67l-164 -92z
" />
    <glyph glyph-name="Dcroat" unicode="&#x110;" horiz-adv-x="728" 
d="M104 710h194q84 0 154 -26.5t120.5 -74t79 -112.5t28.5 -142t-28.5 -142t-79 -112.5t-120.5 -74t-154 -26.5h-194v710zM298 72q69 0 125.5 21t96 59t61.5 89.5t22 113.5q0 61 -22 113t-61.5 90t-96 59t-125.5 21h-118v-566h118zM30 394h320v-68h-320v68z" />
    <glyph glyph-name="Ebreve" unicode="&#x114;" horiz-adv-x="554" 
d="M99 710h405v-72h-329v-237h269v-72h-269v-257h329v-72h-405v710zM301 762q-32 0 -60 10.5t-49 30.5t-33 48.5t-12 63.5h51q0 -50 30 -76.5t73 -26.5t73 26.5t30 76.5h51q0 -35 -12 -63.5t-33 -48.5t-49 -30.5t-60 -10.5z" />
    <glyph glyph-name="Ecaron" unicode="&#x11a;" horiz-adv-x="554" 
d="M99 710h405v-72h-329v-237h269v-72h-269v-257h329v-72h-405v710zM137 861v67l164 -92l164 92v-67l-164 -92z" />
    <glyph glyph-name="Emacron" unicode="&#x112;" horiz-adv-x="554" 
d="M99 710h405v-72h-329v-237h269v-72h-269v-257h329v-72h-405v710zM143 870h316v-61h-316v61z" />
    <glyph glyph-name="Eogonek" unicode="&#x118;" horiz-adv-x="554" 
d="M99 710h405v-72h-329v-237h269v-72h-269v-257h329v-72h-405v710zM430 -219q-37 0 -63.5 24t-26.5 62q0 24 8.5 43.5t22 36t28.5 29.5t29 24h76q-51 -34 -72 -65.5t-21 -53.5q0 -19 10.5 -27.5t25.5 -8.5q19 0 32 7t25 17v-63q-13 -11 -30.5 -18t-43.5 -7z" />
    <glyph glyph-name="Edotaccent" unicode="&#x116;" horiz-adv-x="554" 
d="M99 710h405v-72h-329v-237h269v-72h-269v-257h329v-72h-405v710zM301 789q-23 0 -38.5 15.5t-15.5 37.5t15.5 37.5t38.5 15.5q22 0 37 -15.5t15 -37.5t-15 -37.5t-37 -15.5z" />
    <glyph glyph-name="Gbreve" unicode="&#x11e;" horiz-adv-x="820" 
d="M415 -12q-77 0 -144 28t-116.5 77.5t-78 116.5t-28.5 145t28.5 145t78 116.5t116.5 77.5t144 28q65 0 120.5 -19t99 -50t73.5 -71t44 -82h-84q-15 32 -39.5 59.5t-57 47.5t-72 31.5t-84.5 11.5q-62 0 -115 -23t-92 -62.5t-61 -93.5t-22 -116t22 -116t61 -94t92 -62.5
t115 -22.5q58 0 107.5 20.5t86 56.5t58.5 85t27 106h-279v72h357q6 -93 -20 -169t-75.5 -130t-117 -83.5t-144.5 -29.5zM415 762q-32 0 -60 10.5t-49 30.5t-33 48.5t-12 63.5h51q0 -50 30 -76.5t73 -26.5t73 26.5t30 76.5h51q0 -35 -12 -63.5t-33 -48.5t-49 -30.5t-60 -10.5
z" />
    <glyph glyph-name="Gcircumflex" unicode="&#x11c;" horiz-adv-x="820" 
d="M415 -12q-77 0 -144 28t-116.5 77.5t-78 116.5t-28.5 145t28.5 145t78 116.5t116.5 77.5t144 28q65 0 120.5 -19t99 -50t73.5 -71t44 -82h-84q-15 32 -39.5 59.5t-57 47.5t-72 31.5t-84.5 11.5q-62 0 -115 -23t-92 -62.5t-61 -93.5t-22 -116t22 -116t61 -94t92 -62.5
t115 -22.5q58 0 107.5 20.5t86 56.5t58.5 85t27 106h-279v72h357q6 -93 -20 -169t-75.5 -130t-117 -83.5t-144.5 -29.5zM251 836l164 92l164 -92v-67l-164 92l-164 -92v67z" />
    <glyph glyph-name="uni0122" unicode="&#x122;" horiz-adv-x="820" 
d="M415 -12q-77 0 -144 28t-116.5 77.5t-78 116.5t-28.5 145t28.5 145t78 116.5t116.5 77.5t144 28q65 0 120.5 -19t99 -50t73.5 -71t44 -82h-84q-15 32 -39.5 59.5t-57 47.5t-72 31.5t-84.5 11.5q-62 0 -115 -23t-92 -62.5t-61 -93.5t-22 -116t22 -116t61 -94t92 -62.5
t115 -22.5q58 0 107.5 20.5t86 56.5t58.5 85t27 106h-279v72h357q6 -93 -20 -169t-75.5 -130t-117 -83.5t-144.5 -29.5zM390 -175q-12 8 -19.5 20t-7.5 26q0 22 15 38t37 16t37 -16t15 -38q0 -16 -9 -30l-62 -99h-40z" />
    <glyph glyph-name="Gdotaccent" unicode="&#x120;" horiz-adv-x="820" 
d="M415 -12q-77 0 -144 28t-116.5 77.5t-78 116.5t-28.5 145t28.5 145t78 116.5t116.5 77.5t144 28q65 0 120.5 -19t99 -50t73.5 -71t44 -82h-84q-15 32 -39.5 59.5t-57 47.5t-72 31.5t-84.5 11.5q-62 0 -115 -23t-92 -62.5t-61 -93.5t-22 -116t22 -116t61 -94t92 -62.5
t115 -22.5q58 0 107.5 20.5t86 56.5t58.5 85t27 106h-279v72h357q6 -93 -20 -169t-75.5 -130t-117 -83.5t-144.5 -29.5zM415 789q-23 0 -38.5 15.5t-15.5 37.5t15.5 37.5t38.5 15.5q22 0 37 -15.5t15 -37.5t-15 -37.5t-37 -15.5z" />
    <glyph glyph-name="Hbar" unicode="&#x126;" horiz-adv-x="773" 
d="M103 710h76v-309h415v309h76v-710h-76v329h-415v-329h-76v710zM29 588h715v-63h-715v63z" />
    <glyph glyph-name="Hcircumflex" unicode="&#x124;" horiz-adv-x="765" 
d="M99 710h76v-309h415v309h76v-710h-76v329h-415v-329h-76v710zM218 836l164 92l164 -92v-67l-164 92l-164 -92v67z" />
    <glyph glyph-name="Ibreve" unicode="&#x12c;" horiz-adv-x="274" 
d="M99 710h76v-710h-76v710zM137 762q-32 0 -60 10.5t-49 30.5t-33 48.5t-12 63.5h51q0 -50 30 -76.5t73 -26.5t73 26.5t30 76.5h51q0 -35 -12 -63.5t-33 -48.5t-49 -30.5t-60 -10.5z" />
    <glyph glyph-name="Idotaccent" unicode="&#x130;" horiz-adv-x="274" 
d="M99 710h76v-710h-76v710zM137 789q-23 0 -38.5 15.5t-15.5 37.5t15.5 37.5t38.5 15.5q22 0 37 -15.5t15 -37.5t-15 -37.5t-37 -15.5z" />
    <glyph glyph-name="Imacron" unicode="&#x12a;" horiz-adv-x="274" 
d="M99 710h76v-710h-76v710zM-21 870h316v-61h-316v61z" />
    <glyph glyph-name="Iogonek" unicode="&#x12e;" horiz-adv-x="274" 
d="M99 710h76v-710h-76v710zM101 -219q-37 0 -63.5 24t-26.5 62q0 24 8.5 43.5t22 36t28.5 29.5t29 24h76q-51 -34 -72 -65.5t-21 -53.5q0 -19 10.5 -27.5t25.5 -8.5q19 0 32 7t25 17v-63q-13 -11 -30.5 -18t-43.5 -7z" />
    <glyph glyph-name="Itilde" unicode="&#x128;" horiz-adv-x="274" 
d="M99 710h76v-710h-76v710zM-28 804q8 39 35 64t67 25q19 0 36.5 -6.5t34 -15t31 -15t26.5 -6.5q33 0 43 43h61l-3 -16q-8 -39 -35 -64t-67 -25q-19 0 -36.5 6.5t-34 15t-31 15t-26.5 6.5q-33 0 -43 -43h-61z" />
    <glyph glyph-name="uni1ECA" unicode="&#x1eca;" horiz-adv-x="274" 
d="M99 710h76v-710h-76v710zM137 -181q-23 0 -38.5 15.5t-15.5 37.5t15.5 37.5t38.5 15.5q22 0 37 -15.5t15 -37.5t-15 -37.5t-37 -15.5z" />
    <glyph glyph-name="Jcircumflex" unicode="&#x134;" horiz-adv-x="523" 
d="M229 -12q-43 0 -81 13t-66 38.5t-44 62.5t-16 84h76q0 -32 11 -55.5t29 -39.5t41.5 -24t48.5 -8t48 7.5t40.5 25t28 45.5t10.5 69v504h76v-514q0 -56 -16.5 -95.5t-44.5 -64.5t-64.5 -36.5t-76.5 -11.5zM229 836l164 92l164 -92v-67l-164 92l-164 -92v67z" />
    <glyph glyph-name="uni0136" unicode="&#x136;" horiz-adv-x="664" 
d="M174 343v-343h-75v710h75v-311l327 311h103l-353 -337l435 -373h-113zM349 -175q-12 8 -19.5 20t-7.5 26q0 22 15 38t37 16t37 -16t15 -38q0 -16 -9 -30l-62 -99h-40z" />
    <glyph glyph-name="Lacute" unicode="&#x139;" horiz-adv-x="547" 
d="M99 710h76v-638h355v-72h-431v710zM194 927h94l-112 -157h-62z" />
    <glyph glyph-name="Lcaron" unicode="&#x13d;" horiz-adv-x="547" 
d="M99 710h76v-638h355v-72h-431v710zM310 750h70l-45 -166h-50z" />
    <glyph glyph-name="uni013B" unicode="&#x13b;" horiz-adv-x="547" 
d="M99 710h76v-638h355v-72h-431v710zM282 -175q-12 8 -19.5 20t-7.5 26q0 22 15 38t37 16t37 -16t15 -38q0 -16 -9 -30l-62 -99h-40z" />
    <glyph glyph-name="Ldot" unicode="&#x13f;" horiz-adv-x="551" 
d="M99 710h76v-638h355v-72h-431v710zM415 338q-23 0 -38.5 15.5t-15.5 37.5t15.5 37.5t38.5 15.5q22 0 37 -15.5t15 -37.5t-15 -37.5t-37 -15.5z" />
    <glyph glyph-name="Lslash" unicode="&#x141;" horiz-adv-x="563" 
d="M115 710h76v-638h355v-72h-431v710zM41 213v74l317 211v-74z" />
    <glyph glyph-name="Nacute" unicode="&#x143;" horiz-adv-x="794" 
d="M628 0l-453 581v-581h-76v710h67l453 -581v581h76v-710h-67zM449 927h94l-112 -157h-62z" />
    <glyph glyph-name="Ncaron" unicode="&#x147;" horiz-adv-x="794" 
d="M628 0l-453 581v-581h-76v710h67l453 -581v581h76v-710h-67zM228 861v67l164 -92l164 92v-67l-164 -92z" />
    <glyph glyph-name="uni0145" unicode="&#x145;" horiz-adv-x="794" 
d="M628 0l-453 581v-581h-76v710h67l453 -581v581h76v-710h-67zM376 -175q-12 8 -19.5 20t-7.5 26q0 22 15 38t37 16t37 -16t15 -38q0 -16 -9 -30l-62 -99h-40z" />
    <glyph glyph-name="OE" unicode="&#x152;" horiz-adv-x="1160" 
d="M415 60q62 0 115 22.5t92 62.5t61 94t22 116t-22 116t-61 93.5t-92 62.5t-115 23t-115 -23t-92 -62.5t-61 -93.5t-22 -116t22 -116t61 -94t92 -62.5t115 -22.5zM705 133q-50 -68 -123 -106.5t-167 -38.5q-77 0 -144 28t-116.5 77.5t-78 116.5t-28.5 145t28.5 145
t78 116.5t116.5 77.5t144 28q94 0 167 -38.5t123 -106.5v133h405v-72h-329v-237h269v-72h-269v-257h329v-72h-405v133z" />
    <glyph glyph-name="Obreve" unicode="&#x14e;" horiz-adv-x="830" 
d="M415 60q62 0 115 22.5t92 62.5t61 94t22 116t-22 116t-61 93.5t-92 62.5t-115 23t-115 -23t-92 -62.5t-61 -93.5t-22 -116t22 -116t61 -94t92 -62.5t115 -22.5zM415 -12q-77 0 -144 28t-116.5 77.5t-78 116.5t-28.5 145t28.5 145t78 116.5t116.5 77.5t144 28t144 -28
t116.5 -77.5t78 -116.5t28.5 -145t-28.5 -145t-78 -116.5t-116.5 -77.5t-144 -28zM415 762q-32 0 -60 10.5t-49 30.5t-33 48.5t-12 63.5h51q0 -50 30 -76.5t73 -26.5t73 26.5t30 76.5h51q0 -35 -12 -63.5t-33 -48.5t-49 -30.5t-60 -10.5z" />
    <glyph glyph-name="Ohungarumlaut" unicode="&#x150;" horiz-adv-x="830" 
d="M415 60q62 0 115 22.5t92 62.5t61 94t22 116t-22 116t-61 93.5t-92 62.5t-115 23t-115 -23t-92 -62.5t-61 -93.5t-22 -116t22 -116t61 -94t92 -62.5t115 -22.5zM415 -12q-77 0 -144 28t-116.5 77.5t-78 116.5t-28.5 145t28.5 145t78 116.5t116.5 77.5t144 28t144 -28
t116.5 -77.5t78 -116.5t28.5 -145t-28.5 -145t-78 -116.5t-116.5 -77.5t-144 -28zM541 927h85l-105 -157h-50zM379 927h85l-105 -157h-50z" />
    <glyph glyph-name="Omacron" unicode="&#x14c;" horiz-adv-x="830" 
d="M415 60q62 0 115 22.5t92 62.5t61 94t22 116t-22 116t-61 93.5t-92 62.5t-115 23t-115 -23t-92 -62.5t-61 -93.5t-22 -116t22 -116t61 -94t92 -62.5t115 -22.5zM415 -12q-77 0 -144 28t-116.5 77.5t-78 116.5t-28.5 145t28.5 145t78 116.5t116.5 77.5t144 28t144 -28
t116.5 -77.5t78 -116.5t28.5 -145t-28.5 -145t-78 -116.5t-116.5 -77.5t-144 -28zM257 870h316v-61h-316v61z" />
    <glyph glyph-name="uni1ECC" unicode="&#x1ecc;" horiz-adv-x="830" 
d="M415 60q62 0 115 22.5t92 62.5t61 94t22 116t-22 116t-61 93.5t-92 62.5t-115 23t-115 -23t-92 -62.5t-61 -93.5t-22 -116t22 -116t61 -94t92 -62.5t115 -22.5zM415 -12q-77 0 -144 28t-116.5 77.5t-78 116.5t-28.5 145t28.5 145t78 116.5t116.5 77.5t144 28t144 -28
t116.5 -77.5t78 -116.5t28.5 -145t-28.5 -145t-78 -116.5t-116.5 -77.5t-144 -28zM415 -181q-23 0 -38.5 15.5t-15.5 37.5t15.5 37.5t38.5 15.5q22 0 37 -15.5t15 -37.5t-15 -37.5t-37 -15.5z" />
    <glyph glyph-name="Racute" unicode="&#x154;" horiz-adv-x="628" 
d="M99 710h232q49 0 88 -13.5t66 -38.5t41.5 -60.5t14.5 -78.5q0 -82 -49 -132.5t-137 -57.5l281 -329h-99l-281 330h-81v-330h-76v710zM322 400q68 0 105 29.5t37 89.5t-37 90t-105 30h-147v-239h147zM356 927h94l-112 -157h-62z" />
    <glyph glyph-name="Rcaron" unicode="&#x158;" horiz-adv-x="628" 
d="M99 710h232q49 0 88 -13.5t66 -38.5t41.5 -60.5t14.5 -78.5q0 -82 -49 -132.5t-137 -57.5l281 -329h-99l-281 330h-81v-330h-76v710zM322 400q68 0 105 29.5t37 89.5t-37 90t-105 30h-147v-239h147zM135 861v67l164 -92l164 92v-67l-164 -92z" />
    <glyph glyph-name="uni0156" unicode="&#x156;" horiz-adv-x="628" 
d="M99 710h232q49 0 88 -13.5t66 -38.5t41.5 -60.5t14.5 -78.5q0 -82 -49 -132.5t-137 -57.5l281 -329h-99l-281 330h-81v-330h-76v710zM322 400q68 0 105 29.5t37 89.5t-37 90t-105 30h-147v-239h147zM331 -175q-12 8 -19.5 20t-7.5 26q0 22 15 38t37 16t37 -16t15 -38
q0 -16 -9 -30l-62 -99h-40z" />
    <glyph glyph-name="Sacute" unicode="&#x15a;" horiz-adv-x="552" 
d="M284 -12q-53 0 -96.5 15t-74.5 41.5t-48.5 61.5t-18.5 75h76q3 -32 19 -54.5t39 -37.5t50 -22t53 -7q30 0 56.5 8t46 23t31 37t11.5 49q0 47 -27 78.5t-76 50.5l-105 40q-83 32 -120 78t-37 119q0 42 16 75t44 56.5t66 35.5t83 12q53 0 92 -16.5t65 -42.5t40.5 -59.5
t18.5 -66.5h-76q-7 30 -21.5 51t-33.5 35t-41.5 20.5t-46.5 6.5q-55 0 -92.5 -28.5t-37.5 -77.5t26 -76t80 -48l94 -36q80 -31 122.5 -78.5t42.5 -126.5q0 -45 -16.5 -80t-46 -60t-69.5 -38t-88 -13zM337 927h94l-112 -157h-62z" />
    <glyph glyph-name="Scaron" unicode="&#x160;" horiz-adv-x="552" 
d="M284 -12q-53 0 -96.5 15t-74.5 41.5t-48.5 61.5t-18.5 75h76q3 -32 19 -54.5t39 -37.5t50 -22t53 -7q30 0 56.5 8t46 23t31 37t11.5 49q0 47 -27 78.5t-76 50.5l-105 40q-83 32 -120 78t-37 119q0 42 16 75t44 56.5t66 35.5t83 12q53 0 92 -16.5t65 -42.5t40.5 -59.5
t18.5 -66.5h-76q-7 30 -21.5 51t-33.5 35t-41.5 20.5t-46.5 6.5q-55 0 -92.5 -28.5t-37.5 -77.5t26 -76t80 -48l94 -36q80 -31 122.5 -78.5t42.5 -126.5q0 -45 -16.5 -80t-46 -60t-69.5 -38t-88 -13zM116 861v67l164 -92l164 92v-67l-164 -92z" />
    <glyph glyph-name="Scedilla" unicode="&#x15e;" horiz-adv-x="552" 
d="M284 -12q-53 0 -96.5 15t-74.5 41.5t-48.5 61.5t-18.5 75h76q3 -32 19 -54.5t39 -37.5t50 -22t53 -7q30 0 56.5 8t46 23t31 37t11.5 49q0 47 -27 78.5t-76 50.5l-105 40q-83 32 -120 78t-37 119q0 42 16 75t44 56.5t66 35.5t83 12q53 0 92 -16.5t65 -42.5t40.5 -59.5
t18.5 -66.5h-76q-7 30 -21.5 51t-33.5 35t-41.5 20.5t-46.5 6.5q-55 0 -92.5 -28.5t-37.5 -77.5t26 -76t80 -48l94 -36q80 -31 122.5 -78.5t42.5 -126.5q0 -45 -16.5 -80t-46 -60t-69.5 -38t-88 -13zM181 -152q16 -9 37 -13t39 -4q29 0 49.5 11t20.5 33q0 31 -47 31
q-23 0 -46 -10l-32 21l52 86h52l-35 -57q14 7 38 7q34 0 56.5 -20t22.5 -56q0 -22 -10 -39.5t-27 -30t-40 -19.5t-50 -7q-19 0 -39.5 2.5t-40.5 12.5v52z" />
    <glyph glyph-name="Scircumflex" unicode="&#x15c;" horiz-adv-x="552" 
d="M284 -12q-53 0 -96.5 15t-74.5 41.5t-48.5 61.5t-18.5 75h76q3 -32 19 -54.5t39 -37.5t50 -22t53 -7q30 0 56.5 8t46 23t31 37t11.5 49q0 47 -27 78.5t-76 50.5l-105 40q-83 32 -120 78t-37 119q0 42 16 75t44 56.5t66 35.5t83 12q53 0 92 -16.5t65 -42.5t40.5 -59.5
t18.5 -66.5h-76q-7 30 -21.5 51t-33.5 35t-41.5 20.5t-46.5 6.5q-55 0 -92.5 -28.5t-37.5 -77.5t26 -76t80 -48l94 -36q80 -31 122.5 -78.5t42.5 -126.5q0 -45 -16.5 -80t-46 -60t-69.5 -38t-88 -13zM116 836l164 92l164 -92v-67l-164 92l-164 -92v67z" />
    <glyph glyph-name="uni0218" unicode="&#x218;" horiz-adv-x="552" 
d="M284 -12q-53 0 -96.5 15t-74.5 41.5t-48.5 61.5t-18.5 75h76q3 -32 19 -54.5t39 -37.5t50 -22t53 -7q30 0 56.5 8t46 23t31 37t11.5 49q0 47 -27 78.5t-76 50.5l-105 40q-83 32 -120 78t-37 119q0 42 16 75t44 56.5t66 35.5t83 12q53 0 92 -16.5t65 -42.5t40.5 -59.5
t18.5 -66.5h-76q-7 30 -21.5 51t-33.5 35t-41.5 20.5t-46.5 6.5q-55 0 -92.5 -28.5t-37.5 -77.5t26 -76t80 -48l94 -36q80 -31 122.5 -78.5t42.5 -126.5q0 -45 -16.5 -80t-46 -60t-69.5 -38t-88 -13zM259 -175q-12 8 -19.5 20t-7.5 26q0 22 15 38t37 16t37 -16t15 -38
q0 -16 -9 -30l-62 -99h-40z" />
    <glyph glyph-name="Tcaron" unicode="&#x164;" horiz-adv-x="567" 
d="M246 638h-230v72h535v-72h-230v-638h-75v638zM119 861v67l164 -92l164 92v-67l-164 -92z" />
    <glyph glyph-name="uni0162" unicode="&#x162;" horiz-adv-x="567" 
d="M246 638h-230v72h535v-72h-230v-638h-75v638zM258 -175q-12 8 -19.5 20t-7.5 26q0 22 15 38t37 16t37 -16t15 -38q0 -16 -9 -30l-62 -99h-40z" />
    <glyph glyph-name="uni021A" unicode="&#x21a;" horiz-adv-x="567" 
d="M246 638h-230v72h535v-72h-230v-638h-75v638zM258 -175q-12 8 -19.5 20t-7.5 26q0 22 15 38t37 16t37 -16t15 -38q0 -16 -9 -30l-62 -99h-40z" />
    <glyph glyph-name="Ubreve" unicode="&#x16c;" horiz-adv-x="728" 
d="M364 -12q-61 0 -111.5 20t-86.5 57t-56 90.5t-20 119.5v435h76v-437q0 -51 14 -91t40 -67t62.5 -41t81.5 -14t81.5 14t62.5 41t40 67t14 91v437h76v-435q0 -66 -20 -119.5t-56 -90.5t-86.5 -57t-111.5 -20zM364 762q-32 0 -60 10.5t-49 30.5t-33 48.5t-12 63.5h51
q0 -50 30 -76.5t73 -26.5t73 26.5t30 76.5h51q0 -35 -12 -63.5t-33 -48.5t-49 -30.5t-60 -10.5z" />
    <glyph glyph-name="Uhungarumlaut" unicode="&#x170;" horiz-adv-x="728" 
d="M364 -12q-61 0 -111.5 20t-86.5 57t-56 90.5t-20 119.5v435h76v-437q0 -51 14 -91t40 -67t62.5 -41t81.5 -14t81.5 14t62.5 41t40 67t14 91v437h76v-435q0 -66 -20 -119.5t-56 -90.5t-86.5 -57t-111.5 -20zM490 927h85l-105 -157h-50zM328 927h85l-105 -157h-50z" />
    <glyph glyph-name="Umacron" unicode="&#x16a;" horiz-adv-x="728" 
d="M364 -12q-61 0 -111.5 20t-86.5 57t-56 90.5t-20 119.5v435h76v-437q0 -51 14 -91t40 -67t62.5 -41t81.5 -14t81.5 14t62.5 41t40 67t14 91v437h76v-435q0 -66 -20 -119.5t-56 -90.5t-86.5 -57t-111.5 -20zM206 870h316v-61h-316v61z" />
    <glyph glyph-name="Uogonek" unicode="&#x172;" horiz-adv-x="728" 
d="M419 -219q-37 0 -63.5 24t-26.5 62q0 66 78 125q-17 -2 -26 -3t-17 -1q-61 0 -111.5 20t-86.5 57t-56 90.5t-20 119.5v435h76v-437q0 -51 14 -91t40 -67t62.5 -41t81.5 -14t81.5 14t62.5 41t40 67t14 91v437h76v-435q0 -73 -24 -130.5t-67 -93.5q-22 -18 -47.5 -39
t-47.5 -43t-37 -44.5t-15 -43.5q0 -19 10.5 -27.5t25.5 -8.5q19 0 32 7t25 17v-63q-13 -11 -30.5 -18t-43.5 -7z" />
    <glyph glyph-name="Uring" unicode="&#x16e;" horiz-adv-x="728" 
d="M364 -12q-61 0 -111.5 20t-86.5 57t-56 90.5t-20 119.5v435h76v-437q0 -51 14 -91t40 -67t62.5 -41t81.5 -14t81.5 14t62.5 41t40 67t14 91v437h76v-435q0 -66 -20 -119.5t-56 -90.5t-86.5 -57t-111.5 -20zM364 753q-25 0 -47 9.5t-38.5 26t-26 38t-9.5 46.5t9.5 46.5
t26 38t38.5 26t47 9.5t47 -9.5t38.5 -26t26.5 -38t10 -46.5t-10 -46.5t-26.5 -38t-38.5 -26t-47 -9.5zM364 800q31 0 52.5 21t21.5 52q0 30 -21.5 52t-52.5 22q-30 0 -51.5 -22t-21.5 -52q0 -31 21.5 -52t51.5 -21z" />
    <glyph glyph-name="Utilde" unicode="&#x168;" horiz-adv-x="728" 
d="M364 -12q-61 0 -111.5 20t-86.5 57t-56 90.5t-20 119.5v435h76v-437q0 -51 14 -91t40 -67t62.5 -41t81.5 -14t81.5 14t62.5 41t40 67t14 91v437h76v-435q0 -66 -20 -119.5t-56 -90.5t-86.5 -57t-111.5 -20zM199 804q8 39 35 64t67 25q19 0 36.5 -6.5t34 -15t31 -15
t26.5 -6.5q33 0 43 43h61l-3 -16q-8 -39 -35 -64t-67 -25q-19 0 -36.5 6.5t-34 15t-31 15t-26.5 6.5q-33 0 -43 -43h-61z" />
    <glyph glyph-name="uni1EE4" unicode="&#x1ee4;" horiz-adv-x="728" 
d="M364 -12q-61 0 -111.5 20t-86.5 57t-56 90.5t-20 119.5v435h76v-437q0 -51 14 -91t40 -67t62.5 -41t81.5 -14t81.5 14t62.5 41t40 67t14 91v437h76v-435q0 -66 -20 -119.5t-56 -90.5t-86.5 -57t-111.5 -20zM364 -181q-23 0 -38.5 15.5t-15.5 37.5t15.5 37.5t38.5 15.5
q22 0 37 -15.5t15 -37.5t-15 -37.5t-37 -15.5z" />
    <glyph glyph-name="Wacute" unicode="&#x1e82;" horiz-adv-x="942" 
d="M471 516l-179 -516h-66l-202 710h79l162 -580l206 592l206 -592l162 580h79l-202 -710h-66zM528 927h94l-112 -157h-62z" />
    <glyph glyph-name="Wcircumflex" unicode="&#x174;" horiz-adv-x="942" 
d="M471 516l-179 -516h-66l-202 710h79l162 -580l206 592l206 -592l162 580h79l-202 -710h-66zM307 836l164 92l164 -92v-67l-164 92l-164 -92v67z" />
    <glyph glyph-name="Wdieresis" unicode="&#x1e84;" horiz-adv-x="942" 
d="M471 516l-179 -516h-66l-202 710h79l162 -580l206 592l206 -592l162 580h79l-202 -710h-66zM361 789q-23 0 -38.5 15.5t-15.5 37.5t15.5 37.5t38.5 15.5q22 0 37 -15.5t15 -37.5t-15 -37.5t-37 -15.5zM583 789q-23 0 -38.5 15.5t-15.5 37.5t15.5 37.5t38.5 15.5
q22 0 37 -15.5t15 -37.5t-15 -37.5t-37 -15.5z" />
    <glyph glyph-name="Wgrave" unicode="&#x1e80;" horiz-adv-x="942" 
d="M471 516l-179 -516h-66l-202 710h79l162 -580l206 592l206 -592l162 580h79l-202 -710h-66zM439 770l-112 157h94l80 -157h-62z" />
    <glyph glyph-name="Ycircumflex" unicode="&#x176;" horiz-adv-x="669" 
d="M297 301l-280 409h92l226 -331l226 331h92l-281 -410v-300h-75v301zM170 836l164 92l164 -92v-67l-164 92l-164 -92v67z" />
    <glyph glyph-name="Ydieresis" unicode="&#x178;" horiz-adv-x="669" 
d="M297 301l-280 409h92l226 -331l226 331h92l-281 -410v-300h-75v301zM224 789q-23 0 -38.5 15.5t-15.5 37.5t15.5 37.5t38.5 15.5q22 0 37 -15.5t15 -37.5t-15 -37.5t-37 -15.5zM446 789q-23 0 -38.5 15.5t-15.5 37.5t15.5 37.5t38.5 15.5q22 0 37 -15.5t15 -37.5
t-15 -37.5t-37 -15.5z" />
    <glyph glyph-name="Ygrave" unicode="&#x1ef2;" horiz-adv-x="669" 
d="M297 301l-280 409h92l226 -331l226 331h92l-281 -410v-300h-75v301zM302 770l-112 157h94l80 -157h-62z" />
    <glyph glyph-name="uni0232" unicode="&#x232;" horiz-adv-x="669" 
d="M297 301l-280 409h92l226 -331l226 331h92l-281 -410v-300h-75v301zM176 870h316v-61h-316v61z" />
    <glyph glyph-name="Zacute" unicode="&#x179;" horiz-adv-x="578" 
d="M33 50l398 588h-386v72h488v-50l-399 -588h410v-72h-511v50zM355 927h94l-112 -157h-62z" />
    <glyph glyph-name="Zcaron" unicode="&#x17d;" horiz-adv-x="578" 
d="M33 50l398 588h-386v72h488v-50l-399 -588h410v-72h-511v50zM134 861v67l164 -92l164 92v-67l-164 -92z" />
    <glyph glyph-name="Zdotaccent" unicode="&#x17b;" horiz-adv-x="578" 
d="M33 50l398 588h-386v72h488v-50l-399 -588h410v-72h-511v50zM298 789q-23 0 -38.5 15.5t-15.5 37.5t15.5 37.5t38.5 15.5q22 0 37 -15.5t15 -37.5t-15 -37.5t-37 -15.5z" />
    <glyph glyph-name="uni1E9E" unicode="&#x1e9e;" horiz-adv-x="629" 
d="M99 710h427v-50l-144 -220q95 -12 147.5 -65.5t52.5 -151.5q0 -56 -19 -98t-52.5 -69.5t-80.5 -41.5t-102 -14h-34v72h44q37 0 68 9.5t53.5 28.5t35 47t12.5 66q0 37 -12.5 65.5t-35 47.5t-53.5 28.5t-68 9.5h-44v60l136 207h-255v-641h-76v710z" />
    <glyph glyph-name="abreve" unicode="&#x103;" horiz-adv-x="634" 
d="M293 -10q-53 0 -98.5 20.5t-79 56t-52.5 82.5t-19 101t19 101t52.5 82.5t79 56t98.5 20.5q58 0 108 -26.5t77 -67.5v84h70v-500h-70v84q-27 -41 -77 -67.5t-108 -26.5zM300 55q41 0 75 15.5t58 41.5t37.5 61.5t13.5 76.5q0 40 -13.5 76t-37.5 62t-58 41.5t-75 15.5
t-75 -15.5t-58 -41.5t-37.5 -62t-13.5 -76q0 -41 13.5 -76.5t37.5 -61.5t58 -41.5t75 -15.5zM320 585q-32 0 -60 10.5t-49 30.5t-33 48.5t-12 64.5v11h51v-11q0 -51 30 -77.5t73 -26.5t73 26.5t30 77.5v11h51v-11q0 -36 -12 -64.5t-33 -48.5t-49 -30.5t-60 -10.5z" />
    <glyph glyph-name="amacron" unicode="&#x101;" horiz-adv-x="634" 
d="M293 -10q-53 0 -98.5 20.5t-79 56t-52.5 82.5t-19 101t19 101t52.5 82.5t79 56t98.5 20.5q58 0 108 -26.5t77 -67.5v84h70v-500h-70v84q-27 -41 -77 -67.5t-108 -26.5zM300 55q41 0 75 15.5t58 41.5t37.5 61.5t13.5 76.5q0 40 -13.5 76t-37.5 62t-58 41.5t-75 15.5
t-75 -15.5t-58 -41.5t-37.5 -62t-13.5 -76q0 -41 13.5 -76.5t37.5 -61.5t58 -41.5t75 -15.5zM162 710h316v-61h-316v61z" />
    <glyph glyph-name="aogonek" unicode="&#x105;" horiz-adv-x="634" 
d="M293 -10q-53 0 -98.5 20.5t-79 56t-52.5 82.5t-19 101t19 101t52.5 82.5t79 56t98.5 20.5q58 0 108 -26.5t77 -67.5v84h70v-500h-70v84q-27 -41 -77 -67.5t-108 -26.5zM300 55q41 0 75 15.5t58 41.5t37.5 61.5t13.5 76.5q0 40 -13.5 76t-37.5 62t-58 41.5t-75 15.5
t-75 -15.5t-58 -41.5t-37.5 -62t-13.5 -76q0 -41 13.5 -76.5t37.5 -61.5t58 -41.5t75 -15.5zM477 -219q-36 0 -62.5 23.5t-26.5 59.5q0 26 9 46.5t22.5 37t29 29t29.5 23.5h70q-51 -34 -73 -66t-22 -56q0 -20 11.5 -29.5t26.5 -9.5q19 0 32 7t25 17v-57q-13 -11 -30 -18
t-41 -7z" />
    <glyph glyph-name="cacute" unicode="&#x107;" horiz-adv-x="590" 
d="M305 -10q-57 0 -105 20.5t-82.5 56t-54 82.5t-19.5 101t19.5 101t54 82.5t82.5 56t105 20.5q46 0 86.5 -13.5t73.5 -37.5t56 -57.5t34 -72.5h-76q-17 51 -64 83.5t-110 32.5q-43 0 -78 -15.5t-59.5 -42t-38 -62t-13.5 -75.5t13.5 -75.5t38 -62t59.5 -42t78 -15.5
q63 0 110 32.5t64 83.5h76q-11 -39 -34 -72.5t-56 -57.5t-73.5 -37.5t-86.5 -13.5zM369 750h95l-125 -190h-60z" />
    <glyph glyph-name="ccaron" unicode="&#x10d;" horiz-adv-x="590" 
d="M305 -10q-57 0 -105 20.5t-82.5 56t-54 82.5t-19.5 101t19.5 101t54 82.5t82.5 56t105 20.5q46 0 86.5 -13.5t73.5 -37.5t56 -57.5t34 -72.5h-76q-17 51 -64 83.5t-110 32.5q-43 0 -78 -15.5t-59.5 -42t-38 -62t-13.5 -75.5t13.5 -75.5t38 -62t59.5 -42t78 -15.5
q63 0 110 32.5t64 83.5h76q-11 -39 -34 -72.5t-56 -57.5t-73.5 -37.5t-86.5 -13.5zM151 686v70l154 -102l154 102v-70l-154 -102z" />
    <glyph glyph-name="ccircumflex" unicode="&#x109;" horiz-adv-x="590" 
d="M305 -10q-57 0 -105 20.5t-82.5 56t-54 82.5t-19.5 101t19.5 101t54 82.5t82.5 56t105 20.5q46 0 86.5 -13.5t73.5 -37.5t56 -57.5t34 -72.5h-76q-17 51 -64 83.5t-110 32.5q-43 0 -78 -15.5t-59.5 -42t-38 -62t-13.5 -75.5t13.5 -75.5t38 -62t59.5 -42t78 -15.5
q63 0 110 32.5t64 83.5h76q-11 -39 -34 -72.5t-56 -57.5t-73.5 -37.5t-86.5 -13.5zM459 654v-70l-154 102l-154 -102v70l154 102z" />
    <glyph glyph-name="cdotaccent" unicode="&#x10b;" horiz-adv-x="590" 
d="M305 -10q-57 0 -105 20.5t-82.5 56t-54 82.5t-19.5 101t19.5 101t54 82.5t82.5 56t105 20.5q46 0 86.5 -13.5t73.5 -37.5t56 -57.5t34 -72.5h-76q-17 51 -64 83.5t-110 32.5q-43 0 -78 -15.5t-59.5 -42t-38 -62t-13.5 -75.5t13.5 -75.5t38 -62t59.5 -42t78 -15.5
q63 0 110 32.5t64 83.5h76q-11 -39 -34 -72.5t-56 -57.5t-73.5 -37.5t-86.5 -13.5zM305 602q-23 0 -38.5 15.5t-15.5 37.5t15.5 37.5t38.5 15.5q22 0 37 -15.5t15 -37.5t-15 -37.5t-37 -15.5z" />
    <glyph glyph-name="dcaron" unicode="&#x10f;" horiz-adv-x="634" 
d="M293 -10q-53 0 -98.5 20.5t-79 56t-52.5 82.5t-19 101t19 101t52.5 82.5t79 56t98.5 20.5q58 0 108 -26.5t77 -67.5v334h70v-750h-70v84q-27 -41 -77 -67.5t-108 -26.5zM300 55q41 0 75 15.5t58 41.5t37.5 61.5t13.5 76.5q0 40 -13.5 76t-37.5 62t-58 41.5t-75 15.5
t-75 -15.5t-58 -41.5t-37.5 -62t-13.5 -76q0 -41 13.5 -76.5t37.5 -61.5t58 -41.5t75 -15.5zM613 750h70l-45 -166h-50z" />
    <glyph glyph-name="dcroat" unicode="&#x111;" horiz-adv-x="634" 
d="M293 -10q-53 0 -98.5 20.5t-79 56t-52.5 82.5t-19 101t19 101t52.5 82.5t79 56t98.5 20.5q58 0 108 -26.5t77 -67.5v334h70v-750h-70v84q-27 -41 -77 -67.5t-108 -26.5zM300 55q41 0 75 15.5t58 41.5t37.5 61.5t13.5 76.5q0 40 -13.5 76t-37.5 62t-58 41.5t-75 15.5
t-75 -15.5t-58 -41.5t-37.5 -62t-13.5 -76q0 -41 13.5 -76.5t37.5 -61.5t58 -41.5t75 -15.5zM304 580v61h318v-61h-318z" />
    <glyph glyph-name="ebreve" unicode="&#x115;" horiz-adv-x="575" 
d="M293 -10q-54 0 -99.5 19.5t-78.5 54.5t-51.5 82.5t-18.5 103.5q0 54 17 101.5t49.5 83t79 55.5t105.5 20q60 0 105.5 -23.5t75.5 -62.5t43.5 -89.5t8.5 -104.5h-412q0 -39 15 -71t39 -55t55.5 -36t66.5 -13q50 0 90 21t66 73h72q-9 -32 -28 -61t-47.5 -50.5t-66.5 -34.5
t-86 -13zM293 445q-28 0 -55.5 -8t-51.5 -26.5t-41 -48t-24 -71.5h336q-12 75 -56.5 114.5t-107.5 39.5zM294 585q-32 0 -60 10.5t-49 30.5t-33 48.5t-12 64.5v11h51v-11q0 -51 30 -77.5t73 -26.5t73 26.5t30 77.5v11h51v-11q0 -36 -12 -64.5t-33 -48.5t-49 -30.5t-60 -10.5
z" />
    <glyph glyph-name="ecaron" unicode="&#x11b;" horiz-adv-x="575" 
d="M293 -10q-54 0 -99.5 19.5t-78.5 54.5t-51.5 82.5t-18.5 103.5q0 54 17 101.5t49.5 83t79 55.5t105.5 20q60 0 105.5 -23.5t75.5 -62.5t43.5 -89.5t8.5 -104.5h-412q0 -39 15 -71t39 -55t55.5 -36t66.5 -13q50 0 90 21t66 73h72q-9 -32 -28 -61t-47.5 -50.5t-66.5 -34.5
t-86 -13zM293 445q-28 0 -55.5 -8t-51.5 -26.5t-41 -48t-24 -71.5h336q-12 75 -56.5 114.5t-107.5 39.5zM140 686v70l154 -102l154 102v-70l-154 -102z" />
    <glyph glyph-name="emacron" unicode="&#x113;" horiz-adv-x="575" 
d="M293 -10q-54 0 -99.5 19.5t-78.5 54.5t-51.5 82.5t-18.5 103.5q0 54 17 101.5t49.5 83t79 55.5t105.5 20q60 0 105.5 -23.5t75.5 -62.5t43.5 -89.5t8.5 -104.5h-412q0 -39 15 -71t39 -55t55.5 -36t66.5 -13q50 0 90 21t66 73h72q-9 -32 -28 -61t-47.5 -50.5t-66.5 -34.5
t-86 -13zM293 445q-28 0 -55.5 -8t-51.5 -26.5t-41 -48t-24 -71.5h336q-12 75 -56.5 114.5t-107.5 39.5zM136 710h316v-61h-316v61z" />
    <glyph glyph-name="eogonek" unicode="&#x119;" horiz-adv-x="576" 
d="M521 149q-5 -19 -14.5 -36.5t-20.5 -34.5q-27 -39 -43.5 -70t-25 -54.5t-11.5 -40t-3 -26.5q0 -24 14 -36t37 -12q17 0 31 7t26 17v-57q-13 -11 -31 -18t-40 -7q-44 0 -73 27.5t-29 69.5q0 64 49 127q-27 -9 -50 -12t-44 -3q-54 0 -99.5 19.5t-78.5 54.5t-51.5 82.5
t-18.5 103.5q0 54 17 101.5t49.5 83t79 55.5t105.5 20q60 0 105.5 -23.5t75.5 -62.5t43.5 -89.5t8.5 -104.5h-412q0 -39 15 -71t39 -55t55.5 -36t66.5 -13q50 0 90 21t66 73h72zM293 445q-28 0 -55.5 -8t-51.5 -26.5t-41 -48t-24 -71.5h336q-12 75 -56.5 114.5t-107.5 39.5z
" />
    <glyph glyph-name="edotaccent" unicode="&#x117;" horiz-adv-x="575" 
d="M293 -10q-54 0 -99.5 19.5t-78.5 54.5t-51.5 82.5t-18.5 103.5q0 54 17 101.5t49.5 83t79 55.5t105.5 20q60 0 105.5 -23.5t75.5 -62.5t43.5 -89.5t8.5 -104.5h-412q0 -39 15 -71t39 -55t55.5 -36t66.5 -13q50 0 90 21t66 73h72q-9 -32 -28 -61t-47.5 -50.5t-66.5 -34.5
t-86 -13zM293 445q-28 0 -55.5 -8t-51.5 -26.5t-41 -48t-24 -71.5h336q-12 75 -56.5 114.5t-107.5 39.5zM294 602q-23 0 -38.5 15.5t-15.5 37.5t15.5 37.5t38.5 15.5q22 0 37 -15.5t15 -37.5t-15 -37.5t-37 -15.5z" />
    <glyph glyph-name="gbreve" unicode="&#x11f;" horiz-adv-x="631" 
d="M302 -219q-50 0 -91.5 12.5t-73 34.5t-51.5 53t-26 68h69q18 -53 63 -78.5t111 -25.5q37 0 68.5 12.5t54.5 36.5t36 59.5t13 81.5v59q-27 -41 -76 -67.5t-107 -26.5q-53 0 -98.5 19.5t-78.5 54t-51.5 81t-18.5 100.5t18.5 100.5t51.5 81t78.5 54t98.5 19.5
q58 0 107 -26.5t76 -67.5v84h70v-469q0 -61 -18.5 -108t-51 -78.5t-77 -47.5t-96.5 -16zM299 65q41 0 74.5 14.5t57.5 40t37 60t13 75.5q0 40 -13 75t-37 60.5t-57.5 40t-74.5 14.5t-74.5 -14.5t-57.5 -40t-37 -60.5t-13 -75q0 -41 13 -75.5t37 -60t57.5 -40t74.5 -14.5z
M315 585q-32 0 -60 10.5t-49 30.5t-33 48.5t-12 64.5v11h51v-11q0 -51 30 -77.5t73 -26.5t73 26.5t30 77.5v11h51v-11q0 -36 -12 -64.5t-33 -48.5t-49 -30.5t-60 -10.5z" />
    <glyph glyph-name="gcircumflex" unicode="&#x11d;" horiz-adv-x="631" 
d="M302 -219q-50 0 -91.5 12.5t-73 34.5t-51.5 53t-26 68h69q18 -53 63 -78.5t111 -25.5q37 0 68.5 12.5t54.5 36.5t36 59.5t13 81.5v59q-27 -41 -76 -67.5t-107 -26.5q-53 0 -98.5 19.5t-78.5 54t-51.5 81t-18.5 100.5t18.5 100.5t51.5 81t78.5 54t98.5 19.5
q58 0 107 -26.5t76 -67.5v84h70v-469q0 -61 -18.5 -108t-51 -78.5t-77 -47.5t-96.5 -16zM299 65q41 0 74.5 14.5t57.5 40t37 60t13 75.5q0 40 -13 75t-37 60.5t-57.5 40t-74.5 14.5t-74.5 -14.5t-57.5 -40t-37 -60.5t-13 -75q0 -41 13 -75.5t37 -60t57.5 -40t74.5 -14.5z
M469 654v-70l-154 102l-154 -102v70l154 102z" />
    <glyph glyph-name="uni0123" unicode="&#x123;" horiz-adv-x="631" 
d="M302 -219q-50 0 -91.5 12.5t-73 34.5t-51.5 53t-26 68h69q18 -53 63 -78.5t111 -25.5q37 0 68.5 12.5t54.5 36.5t36 59.5t13 81.5v59q-27 -41 -76 -67.5t-107 -26.5q-53 0 -98.5 19.5t-78.5 54t-51.5 81t-18.5 100.5t18.5 100.5t51.5 81t78.5 54t98.5 19.5
q58 0 107 -26.5t76 -67.5v84h70v-469q0 -61 -18.5 -108t-51 -78.5t-77 -47.5t-96.5 -16zM299 65q41 0 74.5 14.5t57.5 40t37 60t13 75.5q0 40 -13 75t-37 60.5t-57.5 40t-74.5 14.5t-74.5 -14.5t-57.5 -40t-37 -60.5t-13 -75q0 -41 13 -75.5t37 -60t57.5 -40t74.5 -14.5z
M315 602q-22 0 -37 16t-15 38q0 16 9 30l62 99h40l-34 -83q12 -8 19.5 -20t7.5 -26q0 -22 -15 -38t-37 -16z" />
    <glyph glyph-name="gdotaccent" unicode="&#x121;" horiz-adv-x="631" 
d="M302 -219q-50 0 -91.5 12.5t-73 34.5t-51.5 53t-26 68h69q18 -53 63 -78.5t111 -25.5q37 0 68.5 12.5t54.5 36.5t36 59.5t13 81.5v59q-27 -41 -76 -67.5t-107 -26.5q-53 0 -98.5 19.5t-78.5 54t-51.5 81t-18.5 100.5t18.5 100.5t51.5 81t78.5 54t98.5 19.5
q58 0 107 -26.5t76 -67.5v84h70v-469q0 -61 -18.5 -108t-51 -78.5t-77 -47.5t-96.5 -16zM299 65q41 0 74.5 14.5t57.5 40t37 60t13 75.5q0 40 -13 75t-37 60.5t-57.5 40t-74.5 14.5t-74.5 -14.5t-57.5 -40t-37 -60.5t-13 -75q0 -41 13 -75.5t37 -60t57.5 -40t74.5 -14.5z
M315 602q-23 0 -38.5 15.5t-15.5 37.5t15.5 37.5t38.5 15.5q22 0 37 -15.5t15 -37.5t-15 -37.5t-37 -15.5z" />
    <glyph glyph-name="hbar" unicode="&#x127;" horiz-adv-x="586" 
d="M86 0v750h70v-334q27 50 71 72t93 22q41 0 75.5 -13.5t59.5 -39t39 -62t14 -82.5v-313h-70v303q0 66 -35 104t-91 38q-33 0 -61.5 -13t-49.5 -38.5t-33 -62t-12 -82.5v-249h-70zM12 580v61h318v-61h-318z" />
    <glyph glyph-name="hcircumflex" unicode="&#x125;" horiz-adv-x="586" 
d="M86 0v750h70v-334q27 50 71 72t93 22q41 0 75.5 -13.5t59.5 -39t39 -62t14 -82.5v-313h-70v303q0 66 -35 104t-91 38q-33 0 -61.5 -13t-49.5 -38.5t-33 -62t-12 -82.5v-249h-70zM129 836l164 92l164 -92v-67l-164 92l-164 -92v67z" />
    <glyph glyph-name="dotlessi" unicode="&#x131;" horiz-adv-x="242" 
d="M86 500h70v-500h-70v500z" />
    <glyph glyph-name="ibreve" unicode="&#x12d;" horiz-adv-x="242" 
d="M86 500h70v-500h-70v500zM121 585q-32 0 -60 10.5t-49 30.5t-33 48.5t-12 64.5v11h51v-11q0 -51 30 -77.5t73 -26.5t73 26.5t30 77.5v11h51v-11q0 -36 -12 -64.5t-33 -48.5t-49 -30.5t-60 -10.5z" />
    <glyph glyph-name="imacron" unicode="&#x12b;" horiz-adv-x="242" 
d="M86 500h70v-500h-70v500zM-37 710h316v-61h-316v61z" />
    <glyph glyph-name="iogonek" unicode="&#x12f;" horiz-adv-x="242" 
d="M122 650q-23 0 -38.5 15.5t-15.5 37.5t15.5 37.5t38.5 15.5q22 0 37 -15.5t15 -37.5t-15 -37.5t-37 -15.5zM86 500h70v-500h-70v500zM85 -219q-36 0 -62.5 23.5t-26.5 59.5q0 26 9 46.5t22.5 37t29 29t29.5 23.5h70q-51 -34 -73 -66t-22 -56q0 -20 11.5 -29.5t26.5 -9.5
q19 0 32 7t25 17v-57q-13 -11 -30 -18t-41 -7z" />
    <glyph glyph-name="itilde" unicode="&#x129;" horiz-adv-x="242" 
d="M86 500h70v-500h-70v500zM-45 616q8 39 35 64t67 25q19 0 36.5 -6.5t34 -15t31 -15t26.5 -6.5q33 0 43 43h61l-3 -16q-8 -39 -35 -64t-67 -25q-19 0 -36.5 6.5t-34 15t-31 15t-26.5 6.5q-33 0 -43 -43h-61z" />
    <glyph glyph-name="uni1ECB" unicode="&#x1ecb;" horiz-adv-x="242" 
d="M122 650q-23 0 -38.5 15.5t-15.5 37.5t15.5 37.5t38.5 15.5q22 0 37 -15.5t15 -37.5t-15 -37.5t-37 -15.5zM86 500h70v-500h-70v500zM122 -181q-23 0 -38.5 15.5t-15.5 37.5t15.5 37.5t38.5 15.5q22 0 37 -15.5t15 -37.5t-15 -37.5t-37 -15.5z" />
    <glyph glyph-name="uni0237" unicode="&#x237;" horiz-adv-x="250" 
d="M164 -75q0 -74 -40 -109t-101 -35q-20 0 -35 3v64q6 -1 12.5 -1.5t16.5 -0.5q35 0 56 18.5t21 66.5v569h70v-575z" />
    <glyph glyph-name="jcircumflex" unicode="&#x135;" horiz-adv-x="250" 
d="M164 -75q0 -74 -40 -109t-101 -35q-20 0 -35 3v64q6 -1 12.5 -1.5t16.5 -0.5q35 0 56 18.5t21 66.5v569h70v-575zM282 654v-70l-154 102l-154 -102v70l154 102z" />
    <glyph glyph-name="uni0137" unicode="&#x137;" horiz-adv-x="534" 
d="M156 255v-255h-70v750h70v-447l235 197h99l-263 -220l320 -280h-100zM275 -175q-12 8 -19.5 20t-7.5 26q0 22 15 38t37 16t37 -16t15 -38q0 -16 -9 -30l-62 -99h-40z" />
    <glyph glyph-name="lacute" unicode="&#x13a;" horiz-adv-x="242" 
d="M86 750h70v-750h-70v750zM185 1000h95l-125 -190h-60z" />
    <glyph glyph-name="lcaron" unicode="&#x13e;" horiz-adv-x="242" 
d="M86 750h70v-750h-70v750zM222 750h70l-45 -166h-50z" />
    <glyph glyph-name="uni013C" unicode="&#x13c;" horiz-adv-x="242" 
d="M86 750h70v-750h-70v750zM96 -175q-12 8 -19.5 20t-7.5 26q0 22 15 38t37 16t37 -16t15 -38q0 -16 -9 -30l-62 -99h-40z" />
    <glyph glyph-name="ldot" unicode="&#x140;" horiz-adv-x="376" 
d="M86 750h70v-750h-70v750zM310 322q-23 0 -38.5 15.5t-15.5 37.5t15.5 37.5t38.5 15.5q22 0 37 -15.5t15 -37.5t-15 -37.5t-37 -15.5z" />
    <glyph glyph-name="lslash" unicode="&#x142;" horiz-adv-x="310" 
d="M122 750h70v-750h-70v750zM42 264v68l230 153v-68z" />
    <glyph glyph-name="nacute" unicode="&#x144;" horiz-adv-x="586" 
d="M86 500h70v-84q27 50 71 72t93 22q41 0 75.5 -13.5t59.5 -39t39 -62t14 -82.5v-313h-70v303q0 66 -35 104t-91 38q-33 0 -61.5 -13t-49.5 -38.5t-33 -62t-12 -82.5v-249h-70v500zM361 750h95l-125 -190h-60z" />
    <glyph glyph-name="ncaron" unicode="&#x148;" horiz-adv-x="586" 
d="M86 500h70v-84q27 50 71 72t93 22q41 0 75.5 -13.5t59.5 -39t39 -62t14 -82.5v-313h-70v303q0 66 -35 104t-91 38q-33 0 -61.5 -13t-49.5 -38.5t-33 -62t-12 -82.5v-249h-70v500zM143 686v70l154 -102l154 102v-70l-154 -102z" />
    <glyph glyph-name="uni0146" unicode="&#x146;" horiz-adv-x="586" 
d="M86 500h70v-84q27 50 71 72t93 22q41 0 75.5 -13.5t59.5 -39t39 -62t14 -82.5v-313h-70v303q0 66 -35 104t-91 38q-33 0 -61.5 -13t-49.5 -38.5t-33 -62t-12 -82.5v-249h-70v500zM272 -175q-12 8 -19.5 20t-7.5 26q0 22 15 38t37 16t37 -16t15 -38q0 -16 -9 -30l-62 -99
h-40z" />
    <glyph glyph-name="oe" unicode="&#x153;" horiz-adv-x="1024" 
d="M305 -10q-57 0 -105 20.5t-82.5 56t-54 82.5t-19.5 101t19.5 101t54 82.5t82.5 56t105 20.5q74 0 131.5 -33.5t91.5 -88.5q30 55 85 88.5t132 33.5q60 0 105.5 -23.5t75.5 -62.5t43.5 -89.5t8.5 -104.5h-412q0 -39 15 -71t39 -55t55.5 -36t66.5 -13q50 0 90 21t66 73h72
q-9 -32 -28 -61t-47.5 -50.5t-66.5 -34.5t-86 -13q-72 0 -127 32.5t-87 89.5q-33 -55 -91 -88.5t-132 -33.5zM305 55q43 0 77.5 15.5t59.5 42t38.5 62t13.5 75.5t-13.5 75.5t-38.5 62t-59.5 42t-77.5 15.5t-78 -15.5t-59.5 -42t-38 -62t-13.5 -75.5t13.5 -75.5t38 -62
t59.5 -42t78 -15.5zM742 445q-28 0 -55.5 -8t-51.5 -26.5t-41 -48t-24 -71.5h336q-12 75 -56.5 114.5t-107.5 39.5z" />
    <glyph glyph-name="obreve" unicode="&#x14f;" horiz-adv-x="610" 
d="M305 -10q-57 0 -105 20.5t-82.5 56t-54 82.5t-19.5 101t19.5 101t54 82.5t82.5 56t105 20.5t105 -20.5t82.5 -56t54 -82.5t19.5 -101t-19.5 -101t-54 -82.5t-82.5 -56t-105 -20.5zM305 55q43 0 77.5 15.5t59.5 42t38.5 62t13.5 75.5t-13.5 75.5t-38.5 62t-59.5 42
t-77.5 15.5t-78 -15.5t-59.5 -42t-38 -62t-13.5 -75.5t13.5 -75.5t38 -62t59.5 -42t78 -15.5zM305 585q-32 0 -60 10.5t-49 30.5t-33 48.5t-12 64.5v11h51v-11q0 -51 30 -77.5t73 -26.5t73 26.5t30 77.5v11h51v-11q0 -36 -12 -64.5t-33 -48.5t-49 -30.5t-60 -10.5z" />
    <glyph glyph-name="ohungarumlaut" unicode="&#x151;" horiz-adv-x="610" 
d="M305 -10q-57 0 -105 20.5t-82.5 56t-54 82.5t-19.5 101t19.5 101t54 82.5t82.5 56t105 20.5t105 -20.5t82.5 -56t54 -82.5t19.5 -101t-19.5 -101t-54 -82.5t-82.5 -56t-105 -20.5zM305 55q43 0 77.5 15.5t59.5 42t38.5 62t13.5 75.5t-13.5 75.5t-38.5 62t-59.5 42
t-77.5 15.5t-78 -15.5t-59.5 -42t-38 -62t-13.5 -75.5t13.5 -75.5t38 -62t59.5 -42t78 -15.5zM431 750h85l-105 -190h-50zM269 750h85l-105 -190h-50z" />
    <glyph glyph-name="omacron" unicode="&#x14d;" horiz-adv-x="610" 
d="M305 -10q-57 0 -105 20.5t-82.5 56t-54 82.5t-19.5 101t19.5 101t54 82.5t82.5 56t105 20.5t105 -20.5t82.5 -56t54 -82.5t19.5 -101t-19.5 -101t-54 -82.5t-82.5 -56t-105 -20.5zM305 55q43 0 77.5 15.5t59.5 42t38.5 62t13.5 75.5t-13.5 75.5t-38.5 62t-59.5 42
t-77.5 15.5t-78 -15.5t-59.5 -42t-38 -62t-13.5 -75.5t13.5 -75.5t38 -62t59.5 -42t78 -15.5zM147 710h316v-61h-316v61z" />
    <glyph glyph-name="uni1ECD" unicode="&#x1ecd;" horiz-adv-x="610" 
d="M305 -10q-57 0 -105 20.5t-82.5 56t-54 82.5t-19.5 101t19.5 101t54 82.5t82.5 56t105 20.5t105 -20.5t82.5 -56t54 -82.5t19.5 -101t-19.5 -101t-54 -82.5t-82.5 -56t-105 -20.5zM305 55q43 0 77.5 15.5t59.5 42t38.5 62t13.5 75.5t-13.5 75.5t-38.5 62t-59.5 42
t-77.5 15.5t-78 -15.5t-59.5 -42t-38 -62t-13.5 -75.5t13.5 -75.5t38 -62t59.5 -42t78 -15.5zM305 -181q-23 0 -38.5 15.5t-15.5 37.5t15.5 37.5t38.5 15.5q22 0 37 -15.5t15 -37.5t-15 -37.5t-37 -15.5z" />
    <glyph glyph-name="racute" unicode="&#x155;" horiz-adv-x="357" 
d="M86 500h70v-103q8 26 23.5 46.5t35 34t42 20.5t44.5 7q20 0 36 -4v-73q-20 7 -42 7q-23 0 -48 -11t-45 -33.5t-33 -57t-13 -82.5v-251h-70v500zM275 750h95l-125 -190h-60z" />
    <glyph glyph-name="rcaron" unicode="&#x159;" horiz-adv-x="357" 
d="M86 500h70v-103q8 26 23.5 46.5t35 34t42 20.5t44.5 7q20 0 36 -4v-73q-20 7 -42 7q-23 0 -48 -11t-45 -33.5t-33 -57t-13 -82.5v-251h-70v500zM57 686v70l154 -102l154 102v-70l-154 -102z" />
    <glyph glyph-name="uni0157" unicode="&#x157;" horiz-adv-x="357" 
d="M86 500h70v-103q8 26 23.5 46.5t35 34t42 20.5t44.5 7q20 0 36 -4v-73q-20 7 -42 7q-23 0 -48 -11t-45 -33.5t-33 -57t-13 -82.5v-251h-70v500zM97 -175q-12 8 -19.5 20t-7.5 26q0 22 15 38t37 16t37 -16t15 -38q0 -16 -9 -30l-62 -99h-40z" />
    <glyph glyph-name="sacute" unicode="&#x15b;" horiz-adv-x="457" 
d="M237 -10q-38 0 -72 9t-61 28t-43.5 47.5t-19.5 66.5h70q6 -25 18.5 -42t30 -27t37.5 -14.5t40 -4.5q43 0 74.5 18.5t31.5 56.5q0 33 -21 54.5t-69 34.5l-65 17q-64 17 -96.5 54t-32.5 91q0 31 12.5 55t34.5 41t52 26t65 9q40 0 71 -11.5t53 -30.5t35 -44t16 -53h-69
q-11 35 -39 56t-67 21t-66.5 -18.5t-27.5 -50.5q0 -29 18.5 -48.5t63.5 -31.5l77 -20q60 -15 92.5 -52.5t32.5 -93.5q0 -38 -13.5 -65t-37.5 -44t-56 -25.5t-69 -8.5zM299 750h95l-125 -190h-60z" />
    <glyph glyph-name="scaron" unicode="&#x161;" horiz-adv-x="457" 
d="M237 -10q-38 0 -72 9t-61 28t-43.5 47.5t-19.5 66.5h70q6 -25 18.5 -42t30 -27t37.5 -14.5t40 -4.5q43 0 74.5 18.5t31.5 56.5q0 33 -21 54.5t-69 34.5l-65 17q-64 17 -96.5 54t-32.5 91q0 31 12.5 55t34.5 41t52 26t65 9q40 0 71 -11.5t53 -30.5t35 -44t16 -53h-69
q-11 35 -39 56t-67 21t-66.5 -18.5t-27.5 -50.5q0 -29 18.5 -48.5t63.5 -31.5l77 -20q60 -15 92.5 -52.5t32.5 -93.5q0 -38 -13.5 -65t-37.5 -44t-56 -25.5t-69 -8.5zM81 686v70l154 -102l154 102v-70l-154 -102z" />
    <glyph glyph-name="scedilla" unicode="&#x15f;" horiz-adv-x="457" 
d="M237 -10q-38 0 -72 9t-61 28t-43.5 47.5t-19.5 66.5h70q6 -25 18.5 -42t30 -27t37.5 -14.5t40 -4.5q43 0 74.5 18.5t31.5 56.5q0 33 -21 54.5t-69 34.5l-65 17q-64 17 -96.5 54t-32.5 91q0 31 12.5 55t34.5 41t52 26t65 9q40 0 71 -11.5t53 -30.5t35 -44t16 -53h-69
q-11 35 -39 56t-67 21t-66.5 -18.5t-27.5 -50.5q0 -29 18.5 -48.5t63.5 -31.5l77 -20q60 -15 92.5 -52.5t32.5 -93.5q0 -38 -13.5 -65t-37.5 -44t-56 -25.5t-69 -8.5zM131 -152q16 -9 37 -13t39 -4q29 0 49.5 11t20.5 33q0 31 -47 31q-23 0 -46 -10l-32 21l52 86h52l-34 -56
q12 6 37 6q34 0 56.5 -20t22.5 -56q0 -22 -10 -39.5t-27 -30t-40 -19.5t-50 -7q-19 0 -39.5 2.5t-40.5 12.5v52z" />
    <glyph glyph-name="scircumflex" unicode="&#x15d;" horiz-adv-x="457" 
d="M237 -10q-38 0 -72 9t-61 28t-43.5 47.5t-19.5 66.5h70q6 -25 18.5 -42t30 -27t37.5 -14.5t40 -4.5q43 0 74.5 18.5t31.5 56.5q0 33 -21 54.5t-69 34.5l-65 17q-64 17 -96.5 54t-32.5 91q0 31 12.5 55t34.5 41t52 26t65 9q40 0 71 -11.5t53 -30.5t35 -44t16 -53h-69
q-11 35 -39 56t-67 21t-66.5 -18.5t-27.5 -50.5q0 -29 18.5 -48.5t63.5 -31.5l77 -20q60 -15 92.5 -52.5t32.5 -93.5q0 -38 -13.5 -65t-37.5 -44t-56 -25.5t-69 -8.5zM389 654v-70l-154 102l-154 -102v70l154 102z" />
    <glyph glyph-name="uni0219" unicode="&#x219;" horiz-adv-x="457" 
d="M237 -10q-38 0 -72 9t-61 28t-43.5 47.5t-19.5 66.5h70q6 -25 18.5 -42t30 -27t37.5 -14.5t40 -4.5q43 0 74.5 18.5t31.5 56.5q0 33 -21 54.5t-69 34.5l-65 17q-64 17 -96.5 54t-32.5 91q0 31 12.5 55t34.5 41t52 26t65 9q40 0 71 -11.5t53 -30.5t35 -44t16 -53h-69
q-11 35 -39 56t-67 21t-66.5 -18.5t-27.5 -50.5q0 -29 18.5 -48.5t63.5 -31.5l77 -20q60 -15 92.5 -52.5t32.5 -93.5q0 -38 -13.5 -65t-37.5 -44t-56 -25.5t-69 -8.5zM209 -175q-12 8 -19.5 20t-7.5 26q0 22 15 38t37 16t37 -16t15 -38q0 -16 -9 -30l-62 -99h-40z" />
    <glyph glyph-name="tcaron" unicode="&#x165;" horiz-adv-x="367" 
d="M265 -5q-30 0 -56 8.5t-45 26.5t-30 45t-11 64v295h-107v66h107v139h70v-139h146v-66h-146v-289q0 -48 21.5 -66.5t61.5 -18.5q15 0 33 3t30 8v-63q-34 -13 -74 -13zM258 710h70l-45 -166h-50z" />
    <glyph glyph-name="uni0163" unicode="&#x163;" horiz-adv-x="367" 
d="M265 -5q-30 0 -56 8.5t-45 26.5t-30 45t-11 64v295h-107v66h107v139h70v-139h146v-66h-146v-289q0 -48 21.5 -66.5t61.5 -18.5q15 0 33 3t30 8v-63q-34 -13 -74 -13zM206 -175q-12 8 -19.5 20t-7.5 26q0 22 15 38t37 16t37 -16t15 -38q0 -16 -9 -30l-62 -99h-40z" />
    <glyph glyph-name="uni021B" unicode="&#x21b;" horiz-adv-x="367" 
d="M265 -5q-30 0 -56 8.5t-45 26.5t-30 45t-11 64v295h-107v66h107v139h70v-139h146v-66h-146v-289q0 -48 21.5 -66.5t61.5 -18.5q15 0 33 3t30 8v-63q-34 -13 -74 -13zM206 -175q-12 8 -19.5 20t-7.5 26q0 22 15 38t37 16t37 -16t15 -38q0 -16 -9 -30l-62 -99h-40z" />
    <glyph glyph-name="ubreve" unicode="&#x16d;" horiz-adv-x="576" 
d="M261 -10q-40 0 -73.5 14t-58 39.5t-38 62t-13.5 81.5v313h70v-303q0 -65 34 -103.5t88 -38.5q31 0 58.5 13.5t48 39t32 62t11.5 81.5v249h70v-500h-70v84q-26 -48 -68.5 -71t-90.5 -23zM283 585q-32 0 -60 10.5t-49 30.5t-33 48.5t-12 64.5v11h51v-11q0 -51 30 -77.5
t73 -26.5t73 26.5t30 77.5v11h51v-11q0 -36 -12 -64.5t-33 -48.5t-49 -30.5t-60 -10.5z" />
    <glyph glyph-name="uhungarumlaut" unicode="&#x171;" horiz-adv-x="576" 
d="M261 -10q-40 0 -73.5 14t-58 39.5t-38 62t-13.5 81.5v313h70v-303q0 -65 34 -103.5t88 -38.5q31 0 58.5 13.5t48 39t32 62t11.5 81.5v249h70v-500h-70v84q-26 -48 -68.5 -71t-90.5 -23zM409 750h85l-105 -190h-50zM247 750h85l-105 -190h-50z" />
    <glyph glyph-name="umacron" unicode="&#x16b;" horiz-adv-x="576" 
d="M261 -10q-40 0 -73.5 14t-58 39.5t-38 62t-13.5 81.5v313h70v-303q0 -65 34 -103.5t88 -38.5q31 0 58.5 13.5t48 39t32 62t11.5 81.5v249h70v-500h-70v84q-26 -48 -68.5 -71t-90.5 -23zM125 710h316v-61h-316v61z" />
    <glyph glyph-name="uogonek" unicode="&#x173;" horiz-adv-x="576" 
d="M261 -10q-40 0 -73.5 14t-58 39.5t-38 62t-13.5 81.5v313h70v-303q0 -65 34 -103.5t88 -38.5q31 0 58.5 13.5t48 39t32 62t11.5 81.5v249h70v-500h-70v84q-26 -48 -68.5 -71t-90.5 -23zM419 -219q-36 0 -62.5 23.5t-26.5 59.5q0 26 9 46.5t22.5 37t29 29t29.5 23.5h70
q-51 -34 -73 -66t-22 -56q0 -20 11.5 -29.5t26.5 -9.5q19 0 32 7t25 17v-57q-13 -11 -30 -18t-41 -7z" />
    <glyph glyph-name="uring" unicode="&#x16f;" horiz-adv-x="576" 
d="M261 -10q-40 0 -73.5 14t-58 39.5t-38 62t-13.5 81.5v313h70v-303q0 -65 34 -103.5t88 -38.5q31 0 58.5 13.5t48 39t32 62t11.5 81.5v249h70v-500h-70v84q-26 -48 -68.5 -71t-90.5 -23zM283 543q-25 0 -47 9.5t-38.5 26t-26 38t-9.5 46.5t9.5 46.5t26 38t38.5 26t47 9.5
t47 -9.5t38.5 -26t26.5 -38t10 -46.5t-10 -46.5t-26.5 -38t-38.5 -26t-47 -9.5zM283 590q31 0 52.5 21t21.5 52q0 30 -21.5 52t-52.5 22q-30 0 -51.5 -22t-21.5 -52q0 -31 21.5 -52t51.5 -21z" />
    <glyph glyph-name="utilde" unicode="&#x169;" horiz-adv-x="576" 
d="M261 -10q-40 0 -73.5 14t-58 39.5t-38 62t-13.5 81.5v313h70v-303q0 -65 34 -103.5t88 -38.5q31 0 58.5 13.5t48 39t32 62t11.5 81.5v249h70v-500h-70v84q-26 -48 -68.5 -71t-90.5 -23zM117 616q8 39 35 64t67 25q19 0 36.5 -6.5t34 -15t31 -15t26.5 -6.5q33 0 43 43h61
l-3 -16q-8 -39 -35 -64t-67 -25q-19 0 -36.5 6.5t-34 15t-31 15t-26.5 6.5q-33 0 -43 -43h-61z" />
    <glyph glyph-name="uni1EE5" unicode="&#x1ee5;" horiz-adv-x="576" 
d="M261 -10q-40 0 -73.5 14t-58 39.5t-38 62t-13.5 81.5v313h70v-303q0 -65 34 -103.5t88 -38.5q31 0 58.5 13.5t48 39t32 62t11.5 81.5v249h70v-500h-70v84q-26 -48 -68.5 -71t-90.5 -23zM283 -181q-23 0 -38.5 15.5t-15.5 37.5t15.5 37.5t38.5 15.5q22 0 37 -15.5
t15 -37.5t-15 -37.5t-37 -15.5z" />
    <glyph glyph-name="wacute" unicode="&#x1e83;" horiz-adv-x="751" 
d="M375 381l-132 -381h-58l-171 500h72l129 -380l133 380h54l132 -380l130 380h73l-171 -500h-58zM439 750h95l-125 -190h-60z" />
    <glyph glyph-name="wcircumflex" unicode="&#x175;" horiz-adv-x="751" 
d="M375 381l-132 -381h-58l-171 500h72l129 -380l133 380h54l132 -380l130 380h73l-171 -500h-58zM529 654v-70l-154 102l-154 -102v70l154 102z" />
    <glyph glyph-name="wdieresis" unicode="&#x1e85;" horiz-adv-x="751" 
d="M375 381l-132 -381h-58l-171 500h72l129 -380l133 380h54l132 -380l130 380h73l-171 -500h-58zM265 602q-23 0 -38.5 15.5t-15.5 37.5t15.5 37.5t38.5 15.5q22 0 37 -15.5t15 -37.5t-15 -37.5t-37 -15.5zM487 602q-23 0 -38.5 15.5t-15.5 37.5t15.5 37.5t38.5 15.5
q22 0 37 -15.5t15 -37.5t-15 -37.5t-37 -15.5z" />
    <glyph glyph-name="wgrave" unicode="&#x1e81;" horiz-adv-x="751" 
d="M375 381l-132 -381h-58l-171 500h72l129 -380l133 380h54l132 -380l130 380h73l-171 -500h-58zM216 750h95l90 -190h-60z" />
    <glyph glyph-name="ycircumflex" unicode="&#x177;" horiz-adv-x="540" 
d="M122 -209l110 234l-222 475h78l183 -397l183 397h79l-332 -709h-79zM425 654v-70l-154 102l-154 -102v70l154 102z" />
    <glyph glyph-name="ygrave" unicode="&#x1ef3;" horiz-adv-x="540" 
d="M122 -209l110 234l-222 475h78l183 -397l183 397h79l-332 -709h-79zM112 750h95l90 -190h-60z" />
    <glyph glyph-name="uni0233" unicode="&#x233;" horiz-adv-x="540" 
d="M122 -209l110 234l-222 475h78l183 -397l183 397h79l-332 -709h-79zM113 710h316v-61h-316v61z" />
    <glyph glyph-name="zacute" unicode="&#x17a;" horiz-adv-x="479" 
d="M40 56l302 379h-298v65h388v-57l-301 -378h310v-65h-401v56zM302 750h95l-125 -190h-60z" />
    <glyph glyph-name="zcaron" unicode="&#x17e;" horiz-adv-x="479" 
d="M40 56l302 379h-298v65h388v-57l-301 -378h310v-65h-401v56zM84 686v70l154 -102l154 102v-70l-154 -102z" />
    <glyph glyph-name="zdotaccent" unicode="&#x17c;" horiz-adv-x="479" 
d="M40 56l302 379h-298v65h388v-57l-301 -378h310v-65h-401v56zM238 602q-23 0 -38.5 15.5t-15.5 37.5t15.5 37.5t38.5 15.5q22 0 37 -15.5t15 -37.5t-15 -37.5t-37 -15.5z" />
    <glyph glyph-name="ellipsis" unicode="&#x2026;" horiz-adv-x="696" 
d="M348 -8q-28 0 -47 20t-19 47t19 47t47 20t47 -20t19 -47t-19 -47t-47 -20zM580 -8q-28 0 -47 20t-19 47t19 47t47 20t47 -20t19 -47t-19 -47t-47 -20zM117 -8q-28 0 -47 20t-19 47t19 47t47 20t47 -20t19 -47t-19 -47t-47 -20z" />
    <glyph glyph-name="endash" unicode="&#x2013;" horiz-adv-x="558" 
d="M68 316h422v-72h-422v72z" />
    <glyph glyph-name="emdash" unicode="&#x2014;" horiz-adv-x="558" 
d="M68 316h422v-72h-422v72z" />
    <glyph glyph-name="guilsinglleft" unicode="&#x2039;" horiz-adv-x="298" 
d="M188 467h59l-116 -217l116 -217h-59l-141 217z" />
    <glyph glyph-name="guilsinglright" unicode="&#x203a;" horiz-adv-x="298" 
d="M251 250l-141 -217h-59l116 217l-116 217h59z" />
    <glyph glyph-name="quoteleft" unicode="&#x2018;" horiz-adv-x="243" 
d="M156 710h50l-65 -140q16 -9 25.5 -24.5t9.5 -34.5q0 -27 -19 -47t-47 -20t-47 20t-19 47q0 11 3.5 21t8.5 18z" />
    <glyph glyph-name="quoteright" unicode="&#x2019;" horiz-adv-x="246" 
d="M100 456h-50l65 140q-16 9 -25.5 24.5t-9.5 34.5q0 27 19 47t47 20t47 -20t19 -47q0 -11 -3.5 -21t-8.5 -18z" />
    <glyph glyph-name="quotedblleft" unicode="&#x201c;" horiz-adv-x="415" 
d="M156 710h50l-65 -140q16 -9 25.5 -24.5t9.5 -34.5q0 -27 -19 -47t-47 -20t-47 20t-19 47q0 11 3.5 21t8.5 18zM328 710h50l-65 -140q16 -9 25.5 -24.5t9.5 -34.5q0 -27 -19 -47t-47 -20t-47 20t-19 47q0 11 3.5 21t8.5 18z" />
    <glyph glyph-name="quotedblright" unicode="&#x201d;" horiz-adv-x="418" 
d="M100 456h-50l65 140q-16 9 -25.5 24.5t-9.5 34.5q0 27 19 47t47 20t47 -20t19 -47q0 -11 -3.5 -21t-8.5 -18zM272 456h-50l65 140q-16 9 -25.5 24.5t-9.5 34.5q0 27 19 47t47 20t47 -20t19 -47q0 -11 -3.5 -21t-8.5 -18z" />
    <glyph glyph-name="quotesinglbase" unicode="&#x201a;" horiz-adv-x="248" 
d="M78 -140h-50l65 140q-16 9 -25.5 24.5t-9.5 34.5q0 27 19 47t47 20t47 -20t19 -47q0 -11 -3.5 -21t-8.5 -18z" />
    <glyph glyph-name="quotedblbase" unicode="&#x201e;" horiz-adv-x="420" 
d="M78 -140h-50l65 140q-16 9 -25.5 24.5t-9.5 34.5q0 27 19 47t47 20t47 -20t19 -47q0 -11 -3.5 -21t-8.5 -18zM250 -140h-50l65 140q-16 9 -25.5 24.5t-9.5 34.5q0 27 19 47t47 20t47 -20t19 -47q0 -11 -3.5 -21t-8.5 -18z" />
    <glyph glyph-name="bullet" unicode="&#x2022;" horiz-adv-x="425" 
d="M212 166q-28 0 -52.5 10.5t-43 29t-29.5 43.5t-11 53t11 53t29.5 43.5t43 29t52.5 10.5t53 -10.5t43.5 -29t29.5 -43.5t11 -53t-11 -53t-29.5 -43.5t-43.5 -29t-53 -10.5z" />
    <glyph glyph-name="minus" unicode="&#x2212;" horiz-adv-x="564" 
d="M70 321h424v-63h-424v63z" />
    <glyph glyph-name="Euro" unicode="&#x20ac;" horiz-adv-x="907" 
d="M35 408l27 54h108q17 58 50.5 105.5t79.5 82t103 53.5t120 19q58 0 110.5 -16t96.5 -45t77.5 -70t54.5 -91h-76q-36 70 -105 112t-158 42q-50 0 -94.5 -14t-80.5 -39t-63 -60.5t-42 -78.5h441l-27 -54h-427q-2 -13 -3 -26t-1 -27q0 -26 3 -50h376l-25 -54h-338
q15 -44 42 -80t63 -61.5t80.5 -39.5t95.5 -14q89 0 158 42t105 112h76q-21 -50 -54.5 -91t-77.5 -70t-96.5 -45t-110.5 -16q-64 0 -121 19t-103 54t-79.5 83t-49.5 107h-135l27 54h97q-3 24 -3 50q0 27 3 53h-124z" />
    <glyph glyph-name="uniFB01" unicode="&#xfb01;" horiz-adv-x="595" 
d="M124 434h-107v66h107v112q0 74 40 109t101 35q41 0 75 -13v-63q-12 5 -30.5 8t-33.5 3q-40 0 -61 -18.5t-21 -66.5v-106h146v-66h-146v-434h-70v434zM475 650q-23 0 -38.5 15.5t-15.5 37.5t15.5 37.5t38.5 15.5q22 0 37 -15.5t15 -37.5t-15 -37.5t-37 -15.5zM439 500h70
v-500h-70v500z" />
    <glyph glyph-name="uniFB02" unicode="&#xfb02;" horiz-adv-x="595" 
d="M124 434h-107v66h107v112q0 74 40 109t101 35q41 0 75 -13v-63q-12 5 -30.5 8t-33.5 3q-40 0 -61 -18.5t-21 -66.5v-106h146v-66h-146v-434h-70v434zM439 750h70v-750h-70v750z" />
    <glyph glyph-name="glyph328" 
d="M0 650q-23 0 -38.5 15.5t-15.5 37.5t15.5 37.5t38.5 15.5q22 0 37 -15.5t15 -37.5t-15 -37.5t-37 -15.5z" />
    <glyph glyph-name="breve" unicode="&#x2d8;" 
d="M0 585q-32 0 -60 10.5t-49 30.5t-33 48.5t-12 64.5v11h51v-11q0 -51 30 -77.5t73 -26.5t73 26.5t30 77.5v11h51v-11q0 -36 -12 -64.5t-33 -48.5t-49 -30.5t-60 -10.5z" />
    <glyph glyph-name="caron" unicode="&#x2c7;" 
d="M-154 686v70l154 -102l154 102v-70l-154 -102z" />
    <glyph glyph-name="circumflex" unicode="&#x2c6;" 
d="M154 654v-70l-154 102l-154 -102v70l154 102z" />
    <glyph glyph-name="dotaccent" unicode="&#x2d9;" 
d="M0 602q-23 0 -38.5 15.5t-15.5 37.5t15.5 37.5t38.5 15.5q22 0 37 -15.5t15 -37.5t-15 -37.5t-37 -15.5z" />
    <glyph glyph-name="glyph333" 
d="M0 -53q-23 0 -38.5 15.5t-15.5 37.5t15.5 37.5t38.5 15.5q22 0 37 -15.5t15 -37.5t-15 -37.5t-37 -15.5z" />
    <glyph glyph-name="glyph334" 
d="M0 -181q-23 0 -38.5 15.5t-15.5 37.5t15.5 37.5t38.5 15.5q22 0 37 -15.5t15 -37.5t-15 -37.5t-37 -15.5z" />
    <glyph glyph-name="hungarumlaut" unicode="&#x2dd;" 
d="M73 750h85l-105 -190h-50zM-89 750h85l-105 -190h-50z" />
    <glyph glyph-name="glyph336" 
d="M-25 -175q-12 8 -19.5 20t-7.5 26q0 22 15 38t37 16t37 -16t15 -38q0 -16 -9 -30l-62 -99h-40z" />
    <glyph glyph-name="ogonek" unicode="&#x2db;" 
d="M9 -219q-36 0 -62.5 23.5t-26.5 59.5q0 26 9 46.5t22.5 37t29 29t29.5 23.5h70q-51 -34 -73 -66t-22 -56q0 -20 11.5 -29.5t26.5 -9.5q19 0 32 7t25 17v-57q-13 -11 -30 -18t-41 -7z" />
    <glyph glyph-name="ring" unicode="&#x2da;" 
d="M0 543q-25 0 -47 9.5t-38.5 26t-26 38t-9.5 46.5t9.5 46.5t26 38t38.5 26t47 9.5t47 -9.5t38.5 -26t26.5 -38t10 -46.5t-10 -46.5t-26.5 -38t-38.5 -26t-47 -9.5zM0 590q31 0 52.5 21t21.5 52q0 30 -21.5 52t-52.5 22q-30 0 -51.5 -22t-21.5 -52q0 -31 21.5 -52t51.5 -21
z" />
    <glyph glyph-name="tilde" unicode="&#x2dc;" 
d="M-166 616q8 39 35 64t67 25q19 0 36.5 -6.5t34 -15t31 -15t26.5 -6.5q33 0 43 43h61l-3 -16q-8 -39 -35 -64t-67 -25q-19 0 -36.5 6.5t-34 15t-31 15t-26.5 6.5q-33 0 -43 -43h-61z" />
    <glyph glyph-name="glyph340" 
d="M-23 710h70l-45 -166h-50z" />
    <glyph glyph-name="glyph341" 
d="M0 602q-22 0 -37 16t-15 38q0 16 9 30l62 99h40l-34 -83q12 -8 19.5 -20t7.5 -26q0 -22 -15 -38t-37 -16z" />
    <glyph glyph-name="glyph342" 
d="M-99 602q-23 0 -39.5 16.5t-16.5 39.5t16.5 39t39.5 16t39.5 -16t16.5 -39t-16.5 -39.5t-39.5 -16.5zM99 602q-23 0 -39.5 16.5t-16.5 39.5t16.5 39t39.5 16t39.5 -16t16.5 -39t-16.5 -39.5t-39.5 -16.5z" />
    <glyph glyph-name="glyph343" 
d="M-215 -10l-39 38l470 482l38 -37z" />
    <glyph glyph-name="glyph344" 
d="M-159 580v61h318v-61h-318z" />
    <glyph glyph-name="glyph345" 
d="M-159 580v61h318v-61h-318z" />
    <glyph glyph-name="glyph346" 
d="M-115 260v68l230 153v-68z" />
    <glyph glyph-name="glyph347" 
d="M-7 927h94l-112 -157h-62z" />
    <glyph glyph-name="glyph348" 
d="M0 762q-32 0 -60 10.5t-49 30.5t-33 48.5t-12 63.5h51q0 -50 30 -76.5t73 -26.5t73 26.5t30 76.5h51q0 -35 -12 -63.5t-33 -48.5t-49 -30.5t-60 -10.5z" />
    <glyph glyph-name="glyph349" 
d="M-164 861v67l164 -92l164 92v-67l-164 -92z" />
    <glyph glyph-name="glyph350" 
d="M-103 -152q16 -9 37 -13t39 -4q29 0 49.5 11t20.5 33q0 31 -47 31q-23 0 -46 -10l-32 21l52 86h52l-35 -57q14 7 38 7q34 0 56.5 -20t22.5 -56q0 -22 -10 -39.5t-27 -30t-40 -19.5t-50 -7q-19 0 -39.5 2.5t-40.5 12.5v52z" />
    <glyph glyph-name="glyph351" 
d="M-164 836l164 92l164 -92v-67l-164 92l-164 -92v67z" />
    <glyph glyph-name="glyph352" 
d="M-110 789q-23 0 -38.5 15.5t-15.5 37.5t15.5 37.5t38.5 15.5q22 0 37 -15.5t15 -37.5t-15 -37.5t-37 -15.5zM112 789q-23 0 -38.5 15.5t-15.5 37.5t15.5 37.5t38.5 15.5q22 0 37 -15.5t15 -37.5t-15 -37.5t-37 -15.5z" />
    <glyph glyph-name="glyph353" 
d="M0 789q-23 0 -38.5 15.5t-15.5 37.5t15.5 37.5t38.5 15.5q22 0 37 -15.5t15 -37.5t-15 -37.5t-37 -15.5z" />
    <glyph glyph-name="glyph354" 
d="M0 -53q-23 0 -38.5 15.5t-15.5 37.5t15.5 37.5t38.5 15.5q22 0 37 -15.5t15 -37.5t-15 -37.5t-37 -15.5z" />
    <glyph glyph-name="glyph355" 
d="M0 -181q-23 0 -38.5 15.5t-15.5 37.5t15.5 37.5t38.5 15.5q22 0 37 -15.5t15 -37.5t-15 -37.5t-37 -15.5z" />
    <glyph glyph-name="glyph356" 
d="M-25 -175q-12 8 -19.5 20t-7.5 26q0 22 15 38t37 16t37 -16t15 -38q0 -16 -9 -30l-62 -99h-40z" />
    <glyph glyph-name="glyph357" 
d="M25 770l-112 157h94l80 -157h-62z" />
    <glyph glyph-name="glyph358" 
d="M73 927h85l-105 -157h-50zM-89 927h85l-105 -157h-50z" />
    <glyph glyph-name="glyph359" 
d="M-158 870h316v-61h-316v61z" />
    <glyph glyph-name="glyph360" 
d="M8 -219q-37 0 -63.5 24t-26.5 62q0 24 8.5 43.5t22 36t28.5 29.5t29 24h76q-51 -34 -72 -65.5t-21 -53.5q0 -19 10.5 -27.5t25.5 -8.5q19 0 32 7t25 17v-63q-13 -11 -30.5 -18t-43.5 -7z" />
    <glyph glyph-name="glyph361" 
d="M0 753q-25 0 -47 9.5t-38.5 26t-26 38t-9.5 46.5t9.5 46.5t26 38t38.5 26t47 9.5t47 -9.5t38.5 -26t26.5 -38t10 -46.5t-10 -46.5t-26.5 -38t-38.5 -26t-47 -9.5zM0 800q31 0 52.5 21t21.5 52q0 30 -21.5 52t-52.5 22q-30 0 -51.5 -22t-21.5 -52q0 -31 21.5 -52t51.5 -21
z" />
    <glyph glyph-name="glyph362" 
d="M-165 804q8 39 35 64t67 25q19 0 36.5 -6.5t34 -15t31 -15t26.5 -6.5q33 0 43 43h61l-3 -16q-8 -39 -35 -64t-67 -25q-19 0 -36.5 6.5t-34 15t-31 15t-26.5 6.5q-33 0 -43 -43h-61z" />
    <glyph glyph-name="glyph363" 
d="M-160 394h320v-68h-320v68z" />
    <glyph glyph-name="glyph364" 
d="M-283 -20l-47 42l614 708l47 -41z" />
    <glyph glyph-name="glyph365" 
d="M-159 213v74l317 211v-74z" />
    <glyph glyph-name="glyph366" 
d="M-358 601h715v-63h-715v63z" />
    </font>
</defs>
</svg>
